<?xml version="1.0" standalone="no"?>
<!DOCTYPE svg PUBLIC "-//W3C//DTD SVG 1.1//EN" "http://www.w3.org/Graphics/SVG/1.1/DTD/svg11.dtd" >
<svg xmlns="http://www.w3.org/2000/svg" xmlns:xlink="http://www.w3.org/1999/xlink" version="1.1">
<metadata></metadata>
<defs>
<font id="sansa_problack" horiz-adv-x="1280" >
<font-face units-per-em="2048" ascent="1638" descent="-410" />
<missing-glyph horiz-adv-x="544" />
<glyph horiz-adv-x="0" />
<glyph horiz-adv-x="682" />
<glyph unicode=" "  horiz-adv-x="544" />
<glyph unicode="&#x09;" horiz-adv-x="544" />
<glyph unicode="&#xa0;" horiz-adv-x="544" />
<glyph unicode="!" horiz-adv-x="671" d="M113 1536h446l-22 -961h-402zM129 0v385h416v-385h-416z" />
<glyph unicode="&#x22;" horiz-adv-x="1071" d="M96 1536h416l-47 -416h-322zM575 1536h416l-47 -416h-319z" />
<glyph unicode="#" horiz-adv-x="1472" d="M63 248v368h218v304h-218v368h218v248h366v-248h176v248h369v-248h215v-368h-215v-304h215v-368h-215v-248h-369v248h-176v-248h-366v248h-218zM647 616h176v304h-176v-304z" />
<glyph unicode="$" d="M80 47v338h16q80 -25 206.5 -45.5t209.5 -20.5h47q97 0 153 30t56 108q0 24 -9 43.5t-19 31t-35.5 24t-38 17t-46.5 15.5q-8 3 -12 4l-209 63q-145 45 -232 154t-87 295q0 79 25 146t68.5 115.5t105 85t131 58.5t149.5 33v234h281v-228q209 -20 305 -53v-328h-17 q-59 18 -180.5 34t-195.5 16h-39q-185 0 -185 -105q0 -96 127 -129l209 -55q353 -93 353 -471q0 -101 -34 -181.5t-96 -135.5t-141.5 -90t-177.5 -52v-254h-281v240q-85 3 -206.5 22t-200.5 41z" />
<glyph unicode="%" horiz-adv-x="2111" d="M129 1100q0 243 96.5 344.5t304.5 101.5q210 0 304 -100t94 -346q0 -240 -95 -342.5t-303 -102.5q-211 0 -306 102t-95 343zM440 1100q0 -132 15 -175.5t75 -43.5q57 0 71.5 43.5t14.5 175.5q0 133 -14.5 178t-71.5 45q-59 0 -74.5 -45t-15.5 -178zM575 0v33l760 1503 h201v-33l-760 -1503h-201zM1202 436q0 243 96 345t304 102q210 0 304.5 -100.5t94.5 -346.5q0 -240 -95.5 -342t-303.5 -102q-210 0 -305 101.5t-95 342.5zM1511 436q0 -132 15.5 -176.5t75.5 -44.5q57 0 71.5 44t14.5 177t-14.5 177t-71.5 44q-60 0 -75.5 -44.5 t-15.5 -176.5z" />
<glyph unicode="&#x26;" horiz-adv-x="1439" d="M63 449q0 121 71.5 222t184.5 138q-198 98 -198 328q0 107 45.5 188.5t124 130t177 72.5t212.5 24h104q78 0 194.5 -17t174.5 -40v-342h-16q-70 18 -174 32.5t-179 14.5h-41q-176 0 -176 -129q0 -64 44.5 -95.5t123.5 -31.5h641v-336h-96v-536q-82 -31 -262 -59.5 t-313 -28.5q-135 0 -246.5 25t-202.5 78t-142 145t-51 217zM512 479q0 -67 49 -105t144 -38q64 0 126 16v256h-135q-184 0 -184 -129z" />
<glyph unicode="'" horiz-adv-x="608" d="M96 1536h416l-47 -416h-322z" />
<glyph unicode="(" horiz-adv-x="894" d="M96 608v64q0 284 97 511t272 353h399v-33q-93 -81 -157.5 -179.5t-98.5 -207.5t-48.5 -215t-14.5 -229v-64q0 -123 14.5 -229t48.5 -215t98.5 -207.5t157.5 -179.5v-33h-399q-175 126 -272 353t-97 511z" />
<glyph unicode=")" horiz-adv-x="894" d="M33 -223q93 81 157.5 179.5t98.5 207.5t48.5 215t14.5 229v64q0 123 -14.5 229t-48.5 215t-98.5 207.5t-157.5 179.5v33h399q174 -127 271.5 -354t97.5 -510v-64q0 -283 -97.5 -510t-271.5 -354h-399v33z" />
<glyph unicode="*" horiz-adv-x="1024" d="M72 1024l153 88l-151 88l141 250l154 -88v174h286v-176l154 88l143 -248l-153 -88l151 -88l-141 -250l-154 88v-174h-286v176l-154 -88z" />
<glyph unicode="+" d="M127 567v369h328v297h366v-297h330v-369h-330v-327h-366v327h-328z" />
<glyph unicode="," horiz-adv-x="671" d="M33 -256l127 641h415v-162l-294 -479h-248z" />
<glyph unicode="-" horiz-adv-x="831" d="M63 575v353h705v-353h-705z" />
<glyph unicode="." horiz-adv-x="671" d="M160 0v385h415v-385h-415z" />
<glyph unicode="/" horiz-adv-x="1191" d="M63 -223l672 1759h393v-33l-679 -1759h-386v33z" />
<glyph unicode="0" d="M47 768q0 218 36 368.5t111.5 242.5t184 132.5t262.5 40.5q125 0 218.5 -25t166 -80.5t117 -147t67.5 -222.5t23 -309q0 -287 -64 -459.5t-192 -248.5t-336 -76q-209 0 -337.5 76t-192.5 248.5t-64 459.5zM479 768q0 -61 0.5 -99.5t2 -83t5 -71.5t9 -57t14.5 -46.5 t20.5 -33t28 -24t36.5 -12.5t46 -5t46 5t35.5 12.5t27.5 24t20.5 33t14 46.5t9 57t5 71.5t2 83t0.5 99.5t-0.5 99.5t-2 83t-5 71.5t-9 57t-14 46.5t-20.5 33t-27.5 24t-35.5 12.5t-46 5t-46 -5t-36.5 -12.5t-28 -24t-20.5 -33t-14.5 -46.5t-9 -57t-5 -71.5t-2 -83 t-0.5 -99.5z" />
<glyph unicode="1" d="M113 961v366l512 209h319v-1536h-448v1104l-367 -143h-16z" />
<glyph unicode="2" d="M96 0v240q0 169 60 274.5t204 206.5l207 143q2 1 27.5 18.5t30.5 21.5t26.5 20.5t28 24.5t21 24.5t19.5 29.5t10 31t5 37q0 61 -42 87t-134 26h-430v352h578q226 0 351.5 -114t125.5 -318q0 -82 -18 -145.5t-61 -120t-91.5 -100t-132.5 -105.5l-160 -121q-14 -11 -44 -32 t-40.5 -29.5t-26.5 -24t-21 -28.5t-5 -29v-17h600v-352h-1088z" />
<glyph unicode="3" d="M113 0v336h399q223 0 223 143q0 84 -53.5 115t-153.5 31h-256v286h314q127 82 127 185q0 34 -15.5 56.5t-46 32t-59.5 12.5t-72 3h-391v336h512q94 0 167.5 -9.5t140 -35t110 -66.5t69 -106t25.5 -152q0 -57 -21.5 -114t-71 -115t-122.5 -100q246 -87 246 -359 q0 -222 -152 -350.5t-391 -128.5h-528z" />
<glyph unicode="4" d="M63 201v278q113 227 191.5 518t107.5 539h478q-34 -258 -119.5 -510t-208.5 -473h231v278h385v-278h111v-352h-111v-201h-385v201h-680z" />
<glyph unicode="5" d="M96 0v352h457q91 0 145 36t54 116q0 38 -11.5 64.5t-30 41.5t-49.5 23.5t-60.5 11t-72.5 2.5h-399v889h1008v-352h-609v-185h119q261 0 407 -121t146 -366q0 -129 -45 -228t-127 -160.5t-192 -92.5t-244 -31h-496z" />
<glyph unicode="6" d="M63 496v432q0 194 92 333.5t247.5 207t357.5 67.5h344v-336h-369q-112 0 -171.5 -60.5t-67.5 -172.5q106 57 231 57q251 0 378.5 -133t127.5 -387q0 -255 -163.5 -387.5t-436.5 -132.5q-265 0 -417.5 130t-152.5 382zM496 528q0 -98 32 -153.5t119 -55.5q73 0 113.5 48 t40.5 137q0 103 -33.5 152t-120.5 49q-75 0 -151 -25v-152z" />
<glyph unicode="7" d="M96 1184v352h1104v-272q-448 -528 -448 -1168v-96h-449v96q0 192 66 407t166.5 390t214.5 291h-654z" />
<glyph unicode="8" d="M47 432q0 97 52 178t141 142l49 32q-209 129 -209 361q0 90 31 161.5t82.5 116.5t124 75t150 42t165.5 12h14q104 0 184.5 -10.5t152 -38t117.5 -72t72.5 -114.5t26.5 -164q0 -82 -48.5 -174t-111.5 -139l-32 -25q107 -63 166 -160.5t59 -222.5q0 -113 -45.5 -200.5 t-125 -140.5t-180.5 -80t-218 -27h-48q-134 0 -235 23t-178 74.5t-116.5 139.5t-39.5 211zM479 449q0 -62 36.5 -100t100.5 -38h48q63 0 100 40.5t37 97.5q0 69 -32.5 108t-104.5 68l-89 32l-30 -32q-66 -72 -66 -176zM496 1120q0 -56 27.5 -85t84.5 -52l105 -41l14 19 q66 75 66 159q0 51 -38.5 78t-90.5 27h-39q-54 0 -91.5 -27t-37.5 -78z" />
<glyph unicode="9" d="M47 1016q0 163 80.5 282.5t215 178.5t304.5 59q265 0 417.5 -130t152.5 -382v-416q0 -194 -92 -333.5t-247.5 -207t-357.5 -67.5h-344v336h369q107 0 166.5 56t70.5 161q-101 -57 -229 -57q-251 0 -378.5 133t-127.5 387zM479 1016q0 -102 34 -151.5t120 -49.5 q75 0 151 25v151q0 48 -5 81t-19 64.5t-43.5 47.5t-75.5 16q-74 0 -118 -47.5t-44 -136.5z" />
<glyph unicode=":" horiz-adv-x="671" d="M160 0v385h415v-385h-415zM160 735v385h415v-385h-415z" />
<glyph unicode=";" horiz-adv-x="671" d="M33 -256l127 641h415v-162l-294 -479h-248zM160 735v385h415v-385h-415z" />
<glyph unicode="&#x3c;" d="M127 582v336l1008 415h16v-407l-594 -176l594 -177v-405l-16 -2z" />
<glyph unicode="=" d="M127 297v367h1024v-367h-1024zM127 793v366h1024v-366h-1024z" />
<glyph unicode="&#x3e;" d="M127 166v407l592 179l-592 174v407h14l1010 -415v-336l-1010 -416h-14z" />
<glyph unicode="?" horiz-adv-x="1064" d="M129 1184v352h455q214 0 335 -90.5t121 -261.5q0 -199 -184 -383l-201 -201v-88h-415v88l264 297q49 58 68.5 100t19.5 90q0 62 -39.5 79.5t-144.5 17.5h-279zM240 0v385h415v-385h-415z" />
<glyph unicode="@" horiz-adv-x="1951" d="M63 672q0 169 49 312t137.5 246.5t209.5 176.5t266 109t307 36q392 0 624 -187t232 -509q0 -167 -78 -290.5t-208.5 -185t-296.5 -61.5h-377q-183 0 -279 88t-96 265q0 174 101.5 279.5t273.5 105.5h399v-520h16q99 0 158.5 75t59.5 244q0 105 -29.5 185.5t-78 131 t-118 83t-143.5 45t-160 12.5q-61 0 -119 -7t-123.5 -26.5t-121 -49.5t-108 -80.5t-89 -115.5t-58.5 -157.5t-22 -204.5q0 -116 26 -213t72.5 -165.5t107 -120t134 -81.5t148 -44.5t153.5 -14.5q238 0 369 39h14v-232q-66 -23 -175 -36t-208 -13q-158 0 -300.5 34.5 t-265 106t-212 174t-140.5 248t-51 318.5zM881 672q0 -78 27 -106.5t75 -28.5h16v303h-16q-47 0 -74.5 -36.5t-27.5 -131.5z" />
<glyph unicode="A" horiz-adv-x="1615" d="M33 0v16q62 267 176 639q67 234 168 509t151 372h559q51 -93 151 -366.5t171 -514.5q6 -21 34.5 -117t37.5 -128t30 -107.5t37.5 -142t34.5 -144.5v-16h-479q-7 30 -30 135t-38 168h-487q-47 -194 -70 -303h-446zM633 641h325q-118 490 -157 592q-50 -122 -168 -592z" />
<glyph unicode="B" horiz-adv-x="1456" d="M113 0v1536h751q479 0 479 -416q0 -208 -184 -311q101 -45 159 -130t58 -208q0 -471 -520 -471h-743zM559 336h176q99 0 146 29.5t47 113.5q0 80 -50.5 113t-142.5 33h-176v-289zM559 928h176q75 0 118.5 34t43.5 103q0 68 -43.5 101.5t-118.5 33.5h-176v-272z" />
<glyph unicode="C" horiz-adv-x="1359" d="M63 688v160q0 182 57 318.5t162.5 220t247 124.5t318.5 41q109 0 229 -17t203 -46v-465h-352v176q-53 17 -113 17q-150 0 -226.5 -95.5t-76.5 -257.5v-176q0 -166 89 -267.5t247 -101.5h63q81 0 189.5 22t163.5 44h16v-330q-66 -29 -175 -50t-194 -21h-96 q-369 0 -560.5 182t-191.5 522z" />
<glyph unicode="D" horiz-adv-x="1552" d="M113 0v1536h622q183 0 327 -48.5t237 -135.5t141.5 -206.5t48.5 -264.5v-193q0 -152 -46.5 -276.5t-138 -217t-236.5 -143.5t-333 -51h-622zM559 336h113q181 0 274.5 97t93.5 288v127q0 352 -368 352h-113v-864z" />
<glyph unicode="E" horiz-adv-x="1327" d="M113 416v1120h1087v-336h-641v-256h561v-336h-561v-112q0 -95 32.5 -127.5t129.5 -32.5h496v-336h-721q-188 0 -285.5 110t-97.5 306z" />
<glyph unicode="F" horiz-adv-x="1200" d="M113 0v1024q0 257 151.5 384.5t423.5 127.5h449v-336h-385q-94 0 -143.5 -55.5t-49.5 -153.5v-127h545v-336h-545v-528h-446z" />
<glyph unicode="G" horiz-adv-x="1519" d="M63 688v160q0 145 44 263t120 199.5t182.5 136.5t228 80t259.5 25q132 0 279 -26.5t200 -52.5v-336h-16q-72 29 -203 54.5t-260 25.5q-70 0 -135 -20t-122.5 -61.5t-92.5 -116t-35 -171.5v-160q0 -175 93.5 -272t242.5 -97h63q43 0 113 17v217h-193v344h578v-825 q-79 -30 -223.5 -59t-274.5 -29h-80q-368 0 -568 188t-200 516z" />
<glyph unicode="H" horiz-adv-x="1599" d="M113 0v1536h446v-559h481v559h449v-1536h-449v608h-481v-608h-446z" />
<glyph unicode="I" horiz-adv-x="671" d="M113 0v1536h446v-1536h-446z" />
<glyph unicode="J" horiz-adv-x="944" d="M63 0v336h130q105 0 148.5 49t43.5 160v655h-256v336h702v-1024q0 -252 -130 -382t-382 -130h-256z" />
<glyph unicode="K" horiz-adv-x="1536" d="M113 0v1536h446v-575h66l372 575h506v-16l-520 -711l553 -793v-16h-512l-416 641h-49v-641h-446z" />
<glyph unicode="L" horiz-adv-x="1120" d="M113 416v1120h446v-1040q0 -95 32.5 -127.5t129.5 -32.5h366v-336h-591q-188 0 -285.5 110t-97.5 306z" />
<glyph unicode="M" horiz-adv-x="1824" d="M113 0v1536h415l375 -592l393 592h416v-1536h-448v856l-320 -440h-96l-289 440v-856h-446z" />
<glyph unicode="N" horiz-adv-x="1599" d="M113 0v1536h383l544 -801v801h449v-1536h-385l-545 801v-801h-446z" />
<glyph unicode="O" horiz-adv-x="1568" d="M63 721v94q0 357 184 547t537 190q351 0 535 -190t184 -547v-94q0 -357 -184 -547t-535 -190q-353 0 -537 190t-184 547zM512 721q0 -75 6 -130t23.5 -105.5t47 -81.5t78.5 -49.5t117 -18.5t117 18.5t79 49.5t47.5 81.5t23.5 105.5t6 130v94q0 75 -6 130t-23.5 105.5 t-47.5 81.5t-79 49.5t-117 18.5t-117 -18.5t-78.5 -49.5t-47 -81.5t-23.5 -105.5t-6 -130v-94z" />
<glyph unicode="P" horiz-adv-x="1409" d="M113 0v1536h671q291 0 433.5 -133.5t142.5 -419.5t-159 -442t-449 -156h-193v-385h-446zM559 721h113q135 0 187 60.5t52 201.5q0 124 -54.5 170.5t-184.5 46.5h-113v-479z" />
<glyph unicode="Q" horiz-adv-x="1568" d="M63 721v94q0 357 184 547t537 190q351 0 535 -190t184 -547v-94q0 -326 -154 -514t-452 -217v-23q0 -71 27 -95t100 -24q60 0 129 12.5t111 26.5h16v-223q-44 -20 -115.5 -34.5t-140.5 -14.5q-159 0 -255.5 72.5t-96.5 216.5v86q-298 29 -453.5 216.5t-155.5 514.5z M512 721q0 -75 6 -130t23.5 -105.5t47 -81.5t78.5 -49.5t117 -18.5t117 18.5t79 49.5t47.5 81.5t23.5 105.5t6 130v94q0 75 -6 130t-23.5 105.5t-47.5 81.5t-79 49.5t-117 18.5t-117 -18.5t-78.5 -49.5t-47 -81.5t-23.5 -105.5t-6 -130v-94z" />
<glyph unicode="R" horiz-adv-x="1488" d="M113 0v1536h671q609 0 609 -528q0 -155 -53.5 -255.5t-180.5 -185.5q95 -75 190.5 -237t139.5 -314v-16h-449q-31 122 -118 259t-170 190h-193v-449h-446zM559 768h162q126 0 174.5 48.5t48.5 174.5q0 119 -50 164t-173 45h-162v-432z" />
<glyph unicode="S" horiz-adv-x="1327" d="M96 47v338h17q78 -25 205 -45.5t210 -20.5h47q97 0 153 30t56 108q0 30 -11.5 52t-33 36t-46.5 24t-57 20q-7 2 -11 3l-209 63q-144 45 -232 158t-88 299q0 93 34.5 168t92.5 125t139 83.5t170 48.5t189 15h31q90 0 215 -16.5t192 -40.5v-328h-14q-59 18 -181 34t-196 16 h-41q-182 0 -182 -105q0 -96 127 -129l209 -55q173 -46 262.5 -160t89.5 -311q0 -122 -50 -215t-137.5 -148t-197.5 -82.5t-240 -27.5h-80q-83 0 -214 19.5t-218 43.5z" />
<glyph unicode="T" horiz-adv-x="1343" d="M33 1200v336h1280v-336h-416v-1200h-448v1200h-416z" />
<glyph unicode="U" horiz-adv-x="1568" d="M113 557v979h446v-936q0 -264 242 -264q239 0 239 264v936h449v-977q0 -187 -87.5 -318t-240.5 -194t-360 -63q-328 0 -508 141.5t-180 431.5z" />
<glyph unicode="V" horiz-adv-x="1552" d="M33 1520v16h479q35 -235 129.5 -650t142.5 -550q51 144 152.5 559t134.5 641h449v-16q-105 -458 -233.5 -891t-215.5 -629h-606q-90 203 -215.5 638t-216.5 882z" />
<glyph unicode="W" horiz-adv-x="2320" d="M33 1520v16h479q27 -260 94.5 -659t114.5 -541q56 117 135.5 504t120.5 696h383q41 -309 120.5 -696t135.5 -504q45 145 114 546.5t95 653.5h479v-16q-70 -455 -176 -885.5t-193 -634.5h-542q-56 128 -118 329t-108 423q-81 -409 -223 -752h-545q-86 205 -191 635.5 t-175 884.5z" />
<glyph unicode="X" horiz-adv-x="1456" d="M16 0v16l461 752l-461 752v16h488l223 -365l225 365h457v-16l-448 -727l479 -777v-16h-488l-239 387l-242 -387h-455z" />
<glyph unicode="Y" horiz-adv-x="1439" d="M0 1520v16h471l281 -616l280 616h408v-16l-488 -912v-608h-448v592z" />
<glyph unicode="Z" horiz-adv-x="1327" d="M63 0v289q182 226 385.5 500.5t278.5 410.5h-647v336h1167v-289q-78 -150 -281 -440t-350 -471h648v-336h-1201z" />
<glyph unicode="[" horiz-adv-x="944" d="M127 -256v1792h688v-352h-240v-1088h240v-352h-688z" />
<glyph unicode="\" horiz-adv-x="1191" d="M63 1503v33h394l671 -1759v-33h-385z" />
<glyph unicode="]" horiz-adv-x="944" d="M127 96h242v1088h-242v352h688v-1792h-688v352z" />
<glyph unicode="^" d="M55 223v17l416 880h338l416 -880v-17h-410l-174 465l-176 -465h-410z" />
<glyph unicode="_" d="M63 0h1154v-369h-1154v369z" />
<glyph unicode="`" horiz-adv-x="624" d="M0 1571v28h424l201 -286v-33h-273z" />
<glyph unicode="a" horiz-adv-x="1406" d="M63 385v190q0 249 160.5 397t417.5 148h655v-1120h-448v152l-72 -48q-88 -59 -171 -89.5t-189 -30.5q-175 0 -264 107t-89 294zM512 449q0 -66 20 -98t76 -32q59 0 168 72l72 49v361h-96q-122 0 -181 -54t-59 -172v-126z" />
<glyph unicode="b" horiz-adv-x="1406" d="M113 0v1536h446v-567l74 47q89 60 171 90.5t187 30.5q176 0 264 -107t88 -295v-190q0 -249 -160 -397t-415 -148h-655zM559 319h96q122 0 182 54t60 172v127q0 66 -20 97.5t-76 31.5q-67 0 -168 -74l-74 -47v-361z" />
<glyph unicode="c" horiz-adv-x="1216" d="M63 449v190q0 125 47.5 221.5t132.5 156t195.5 90t241.5 30.5q280 0 471 -88v-377h-350v112q-52 17 -121 17q-78 0 -123 -43t-45 -119v-127q0 -106 49 -149.5t160 -43.5q191 0 383 50h16v-314q-85 -33 -214 -52t-234 -19q-609 0 -609 465z" />
<glyph unicode="d" horiz-adv-x="1406" d="M63 383v192q0 249 159.5 397t416.5 148h209v416h448v-1536h-448v152l-72 -48q-88 -59 -171 -89.5t-189 -30.5q-175 0 -264 106t-89 293zM512 449q0 -66 20 -98t76 -32q59 0 168 72l72 49v361h-96q-122 0 -181 -54t-59 -172v-126z" />
<glyph unicode="e" horiz-adv-x="1327" d="M63 449v206q0 103 35 185t95 137t144.5 91.5t179.5 52.5t204 16q87 0 163.5 -11t147.5 -38t121.5 -68.5t80.5 -105.5t30 -146q0 -177 -100.5 -248t-299.5 -71h-352v-17q0 -37 32.5 -64t74.5 -38t86 -11q232 0 415 50h17v-328q-202 -57 -465 -57q-103 0 -192.5 16 t-167 51.5t-132 88.5t-86 132t-31.5 177zM512 625h240q96 0 96 80q0 50 -45 73t-107 23q-88 0 -136 -39.5t-48 -120.5v-16z" />
<glyph unicode="f" horiz-adv-x="751" d="M0 801v319h127v33q0 182 114 282.5t304 100.5h256v-297h-66q-33 0 -48 -0.5t-38 -3t-33 -9t-21.5 -17.5t-15.5 -29t-4 -43v-17h209v-319h-209v-801h-448v801h-127z" />
<glyph unicode="g" horiz-adv-x="1423" d="M63 471v129q0 168 77 286.5t209 176t306 57.5h658v-960q0 -255 -158 -400t-420 -145h-512v322h289q54 0 90 1.5t76.5 7t66 15.5t50.5 27.5t38.5 42.5t22 61.5t8.5 83.5v8l-49 -24q-67 -34 -108 -51t-105.5 -31.5t-136.5 -14.5q-191 0 -296.5 107.5t-105.5 300.5zM512 528 q0 -129 113 -129q19 0 38 2t30.5 4t30.5 7.5t25 7.5t27 10.5t25 9.5l63 25v336h-112q-240 0 -240 -217v-56z" />
<glyph unicode="h" horiz-adv-x="1423" d="M113 0v1536h446v-567l49 30q56 38 88 57.5t79 41t95 30.5t107 9q159 0 247.5 -95t88.5 -258v-784h-449v696q0 51 -17.5 78t-62.5 27q-18 0 -38.5 -7t-45 -21.5t-38.5 -24t-40.5 -30t-29.5 -22.5l-33 -24v-672h-446z" />
<glyph unicode="i" horiz-adv-x="704" d="M0 801v319h592v-1120h-449v801h-143zM143 1217v319h449v-319h-449z" />
<glyph unicode="j" horiz-adv-x="768" d="M-33 -63h49q111 0 152 35t41 141v688h-209v319h655v-1057q0 -209 -118.5 -328.5t-327.5 -119.5h-242v322zM209 1217v319h446v-319h-446z" />
<glyph unicode="k" horiz-adv-x="1376" d="M113 0v1536h446v-801h16l322 385h479v-16l-424 -488l432 -600v-16h-503l-306 449h-16v-449h-446z" />
<glyph unicode="l" horiz-adv-x="704" d="M0 1217v319h592v-1536h-449v1217h-143z" />
<glyph unicode="m" horiz-adv-x="2174" d="M113 0v1120h446v-151l49 30q56 38 88 57.5t79 41t95 30.5t107 9q109 0 186.5 -46.5t114.5 -129.5h18l64 38q10 6 47.5 29.5t49 30t43.5 24t51.5 23.5t50 15.5t61.5 12.5t66 3q159 0 247 -95t88 -258v-784h-448v696q0 51 -17.5 78t-62.5 27q-18 0 -38.5 -6.5t-45.5 -22 t-38 -24t-41.5 -30t-29.5 -22.5l-30 -24v-672h-449v696q0 51 -17.5 78t-62.5 27q-18 0 -38.5 -7t-45 -21.5t-38.5 -24t-40.5 -30t-29.5 -22.5l-33 -24v-672h-446z" />
<glyph unicode="n" horiz-adv-x="1423" d="M113 0v1120h446v-151l49 30q56 38 88 57.5t79 41t95 30.5t107 9q159 0 247.5 -95t88.5 -258v-784h-449v696q0 51 -17.5 78t-62.5 27q-18 0 -38.5 -7t-45 -21.5t-38.5 -24t-40.5 -30t-29.5 -22.5l-33 -24v-672h-446z" />
<glyph unicode="o" horiz-adv-x="1343" d="M47 559q0 301 156 439.5t469 138.5q325 0 474.5 -133t149.5 -445q0 -300 -155.5 -437.5t-468.5 -137.5q-162 0 -277 30.5t-194 98t-116.5 177.5t-37.5 269zM496 559q0 -126 34.5 -183t141.5 -57t141.5 57t34.5 183q0 63 -6.5 103.5t-24.5 74t-53.5 49t-91.5 15.5 t-91.5 -15.5t-53.5 -49t-24.5 -74t-6.5 -103.5z" />
<glyph unicode="p" horiz-adv-x="1406" d="M113 -385v1505h446v-151l74 47q89 60 171 90.5t187 30.5q176 0 264 -107t88 -295v-190q0 -249 -160 -397t-415 -148h-209v-385h-446zM559 319h96q122 0 182 54t60 172v127q0 66 -20 97.5t-76 31.5q-67 0 -168 -74l-74 -47v-361z" />
<glyph unicode="q" horiz-adv-x="1406" d="M63 385v190q0 249 160.5 397t417.5 148h655v-1505h-448v537l-72 -48q-88 -59 -171 -89.5t-189 -30.5q-175 0 -264 107t-89 294zM512 449q0 -66 20 -98t76 -32q59 0 168 72l72 49v361h-96q-122 0 -181 -54t-59 -172v-126z" />
<glyph unicode="r" horiz-adv-x="960" d="M113 0v1120h446v-129q50 67 127.5 106.5t161.5 39.5h129v-353h-146q-85 0 -150.5 -12.5t-121.5 -50.5v-721h-446z" />
<glyph unicode="s" horiz-adv-x="1200" d="M63 16v328h17q212 -41 399 -41q193 0 193 49q0 9 -7.5 17t-24.5 14.5t-27.5 9.5t-33.5 8.5t-26 6.5l-176 41q-155 34 -234.5 111t-79.5 216q0 83 37 148t96.5 104.5t142.5 64.5t165.5 34.5t175.5 9.5q196 0 391 -41v-312h-14q-219 31 -369 31q-160 0 -160 -47 q0 -7 4.5 -13t13.5 -11t17.5 -8.5t23 -7t23.5 -6t24 -5.5t21 -4l146 -33q57 -13 101.5 -28.5t90.5 -42t76 -60.5t49 -84.5t19 -112.5q0 -75 -26.5 -135t-75.5 -99t-109 -66.5t-138 -41.5t-151 -20t-158 -6q-230 0 -416 32z" />
<glyph unicode="t" horiz-adv-x="864" d="M0 801v319h127v289h448v-289h256v-319h-256v-289q0 -104 39 -148.5t138 -44.5h112v-319h-289q-218 0 -333 109t-115 323v369h-127z" />
<glyph unicode="u" horiz-adv-x="1423" d="M113 336v784h446v-696q0 -52 17.5 -78.5t64.5 -26.5q61 0 190 105l33 25v671h449v-1120h-449v152l-49 -31q-74 -50 -115 -73.5t-108 -43.5t-143 -20q-161 0 -248.5 94t-87.5 258z" />
<glyph unicode="v" d="M47 831v289h449v-223q0 -194 40.5 -360t110.5 -248q69 80 103 242.5t34 365.5v223h449v-289q0 -135 -36.5 -276t-90.5 -249t-109 -187.5t-100 -118.5h-528q-45 38 -98.5 118t-104.5 188t-85 248.5t-34 276.5z" />
<glyph unicode="w" horiz-adv-x="1888" d="M47 831v289h449v-223q0 -453 120 -594q67 79 93 229t26 365v223h418v-223q0 -215 26 -365t93 -229q121 142 121 594v223h446v-289q0 -136 -33.5 -276.5t-84 -248.5t-103.5 -188t-98 -118h-433q-27 24 -77 113t-74 159q-23 -68 -79 -156t-89 -116h-432q-44 37 -93 117.5 t-93.5 188.5t-73.5 248.5t-29 276.5z" />
<glyph unicode="x" horiz-adv-x="1216" d="M0 0v16l383 549l-367 539v16h449l149 -223l154 223h432v-16l-366 -529l383 -559v-16h-449l-166 244l-170 -244h-432z" />
<glyph unicode="y" horiz-adv-x="1423" d="M113 512v608h446v-512q0 -78 22.5 -110.5t90.5 -32.5q67 0 143 39l49 24v592h449v-944q0 -262 -156 -411.5t-422 -149.5h-495v322h272q78 0 126.5 4t96 19t73 42.5t41 74.5t15.5 116v57l-55 -35q-143 -86 -297 -86q-194 0 -296.5 96.5t-102.5 286.5z" />
<glyph unicode="z" horiz-adv-x="1183" d="M63 0v240q112 88 260 248.5t252 312.5h-512v319h1041v-256q-69 -127 -186.5 -279t-229.5 -266h432v-319h-1057z" />
<glyph unicode="{" horiz-adv-x="1071" d="M63 487v306q83 6 134.5 22t78 47t35 67t8.5 95v160q0 174 126 263t339 89h224v-352h-97q-24 0 -42.5 -2.5t-33 -5t-25 -11t-18 -14.5t-12 -22.5t-7 -26.5t-4 -35t-1.5 -40.5v-49.5v-33q0 -73 -20.5 -127.5t-58.5 -88.5t-82.5 -54t-102.5 -33q58 -13 102 -33.5t82.5 -55 t59 -89t20.5 -127.5v-33v-49.5t1.5 -40.5t4 -35t7 -26.5t12 -22.5t18 -14.5t25 -11t33 -5t42.5 -2.5h97v-352h-224q-213 0 -339 89t-126 263v160q0 59 -8.5 95t-35 67t-78 47t-134.5 22z" />
<glyph unicode="|" horiz-adv-x="735" d="M193 -385v2050h352v-2050h-352z" />
<glyph unicode="}" horiz-adv-x="1071" d="M96 96h97q24 0 42.5 2.5t33 5t25 11t18 14.5t12 22.5t7 26.5t4 35t1.5 40.5v49.5v33q0 73 20.5 127.5t59 89t82.5 55t102 33.5q-58 13 -102.5 33t-82.5 54t-58.5 88.5t-20.5 127.5v33v49.5t-1.5 40.5t-4 35t-7 26.5t-12 22.5t-18 14.5t-25 11t-33 5t-42.5 2.5h-97v352 h223q213 0 339 -89t126 -263v-160q0 -59 8.5 -95t35 -67t78 -47t134.5 -22v-306q-83 -6 -134.5 -22t-78 -47t-35 -67t-8.5 -95v-160q0 -174 -126 -263t-339 -89h-223v352z" />
<glyph unicode="~" d="M127 432v361q31 57 106.5 100t155.5 43q61 0 164 -34t199.5 -67.5t142.5 -33.5q165 0 240 135h16v-361q-32 -57 -108 -100t-156 -43q-61 0 -164 34t-199 67.5t-141 33.5q-73 0 -136.5 -35t-105.5 -100h-14z" />
<glyph unicode="&#xa2;" d="M63 727v88q0 156 43.5 284t122 216.5t182.5 144.5t230 78v238h279v-228q126 -9 256 -53v-328h-17q-160 50 -336 50h-22q-68 0 -119.5 -21.5t-83 -57t-51.5 -88.5t-27.5 -109.5t-7.5 -125.5v-88q0 -85 15 -155.5t47.5 -128.5t90.5 -91t136 -33h47q193 0 319 66h17v-330 q-116 -51 -264 -67v-244h-279v250q-146 19 -257 79.5t-181 156t-105 220.5t-35 277z" />
<glyph unicode="&#xa3;" d="M63 0v336h146q45 29 69.5 91t24.5 132v49h-174v336h174v39q0 273 152.5 413t433.5 140h278v-336h-176q-118 0 -174.5 -49.5t-56.5 -167.5v-39h327v-336h-327v-49q0 -68 -25 -127.5t-71 -95.5h553v-336h-1154z" />
<glyph unicode="&#xa5;" d="M-88 1520v16h473l279 -584l280 584h408v-16l-488 -879v-129h289v-336h-289v-176h-448v176h-287v336h287v113z" />
<glyph unicode="&#xa8;" horiz-adv-x="894" d="M0 1280v256h328v-256h-328zM567 1280v256h328v-256h-328z" />
<glyph unicode="&#xa9;" horiz-adv-x="1824" d="M96 784q0 220 107 392.5t292.5 266t415.5 93.5q231 0 417 -93.5t293.5 -266t107.5 -392.5t-107.5 -392.5t-293.5 -265.5t-417 -93q-172 0 -322.5 54.5t-259 152t-171 238.5t-62.5 306zM311 784q0 -128 43.5 -237.5t121.5 -187.5t190.5 -122t244.5 -44q268 0 434 165.5 t166 425.5t-166 426t-434 166q-132 0 -244.5 -44.5t-190.5 -122.5t-121.5 -187.5t-43.5 -237.5zM512 784q0 110 39.5 192.5t108 130t151.5 70.5t180 23q80 0 193 -33v-127q-107 31 -193 31q-113 0 -184.5 -74t-71.5 -213t71.5 -213.5t184.5 -74.5q99 0 193 32v-129 q-101 -30 -193 -30q-97 0 -180 22.5t-151.5 70t-108 130t-39.5 192.5z" />
<glyph unicode="&#xab;" horiz-adv-x="1136" d="M63 545v286l408 289h41v-289l-209 -143l209 -143v-289h-41zM575 545v286l408 289h41v-289l-209 -143l209 -143v-289h-41z" />
<glyph unicode="&#xad;" horiz-adv-x="831" d="M63 575v353h705v-353h-705z" />
<glyph unicode="&#xae;" horiz-adv-x="1824" d="M96 784q0 220 107 392.5t292.5 266t415.5 93.5q231 0 417 -93.5t293.5 -266t107.5 -392.5t-107.5 -392.5t-293.5 -265.5t-417 -93q-172 0 -322.5 54.5t-259 152t-171 238.5t-62.5 306zM311 784q0 -128 43.5 -237.5t121.5 -187.5t190.5 -122t244.5 -44q268 0 434 165.5 t166 425.5t-166 426t-434 166q-132 0 -244.5 -44.5t-190.5 -122.5t-121.5 -187.5t-43.5 -237.5zM575 369v831h322q69 0 126.5 -11t110.5 -38t83 -79.5t30 -127.5q0 -83 -47 -145t-121 -86l193 -328v-16h-232l-151 272h-88v-272h-226zM801 776h63q160 0 160 168 q0 127 -160 127h-63v-295z" />
<glyph unicode="&#xb4;" horiz-adv-x="624" d="M0 1280v33l201 286h424v-28l-353 -291h-272z" />
<glyph unicode="&#xb8;" horiz-adv-x="536" d="M0 -223h193q54 0 82 11t28 44q0 37 -28.5 59t-73.5 37v25h207q54 -25 91.5 -73t37.5 -95q0 -86 -64 -128t-162 -42h-311v162z" />
<glyph unicode="&#xbb;" horiz-adv-x="1136" d="M113 256v289l206 143l-206 143v289h39l407 -289v-286l-407 -289h-39zM625 256v289l206 143l-206 143v289h39l407 -289v-286l-407 -289h-39z" />
<glyph unicode="&#xc2;" horiz-adv-x="1615" d="M33 0v16q62 267 176 639q67 234 168 509t151 372h559q51 -93 151 -366.5t171 -514.5q6 -21 34.5 -117t37.5 -128t30 -107.5t37.5 -142t34.5 -144.5v-16h-479q-7 30 -30 135t-38 168h-487q-47 -194 -70 -303h-446zM319 1696v33l289 335h369l287 -335v-33h-273l-198 192 l-201 -192h-273zM633 641h325q-118 490 -157 592q-50 -122 -168 -592z" />
<glyph unicode="&#xc7;" horiz-adv-x="1359" d="M63 688v160q0 182 57 318.5t162.5 220t247 124.5t318.5 41q109 0 229 -17t203 -46v-465h-352v176q-53 17 -113 17q-150 0 -226.5 -95.5t-76.5 -257.5v-176q0 -166 89 -267.5t247 -101.5h63q81 0 189.5 22t163.5 44h16v-330q-66 -29 -175 -50t-194 -21h-96 q-369 0 -560.5 182t-191.5 522zM516 -223h193q54 0 82 11t28 44q0 37 -28.5 59t-73.5 37v25h207q54 -25 91.5 -73t37.5 -95q0 -86 -64 -128t-162 -42h-311v162z" />
<glyph unicode="&#xce;" horiz-adv-x="671" d="M-135 1696v33l287 335h368l289 -335v-33h-272l-201 192l-201 -192h-270zM113 0v1536h446v-1536h-446z" />
<glyph unicode="&#xd6;" horiz-adv-x="1568" d="M63 721v94q0 357 184 547t537 190q351 0 535 -190t184 -547v-94q0 -357 -184 -547t-535 -190q-353 0 -537 190t-184 547zM336 1696v256h328v-256h-328zM512 721q0 -75 6 -130t23.5 -105.5t47 -81.5t78.5 -49.5t117 -18.5t117 18.5t79 49.5t47.5 81.5t23.5 105.5t6 130v94 q0 75 -6 130t-23.5 105.5t-47.5 81.5t-79 49.5t-117 18.5t-117 -18.5t-78.5 -49.5t-47 -81.5t-23.5 -105.5t-6 -130v-94zM903 1696v256h330v-256h-330z" />
<glyph unicode="&#xdb;" horiz-adv-x="1568" d="M113 557v979h446v-936q0 -264 242 -264q239 0 239 264v936h449v-977q0 -187 -87.5 -318t-240.5 -194t-360 -63q-328 0 -508 141.5t-180 431.5zM311 1696v33l289 335h369l286 -335v-33h-272l-199 192l-200 -192h-273z" />
<glyph unicode="&#xdc;" horiz-adv-x="1568" d="M113 557v979h446v-936q0 -264 242 -264q239 0 239 264v936h449v-977q0 -187 -87.5 -318t-240.5 -194t-360 -63q-328 0 -508 141.5t-180 431.5zM336 1696v256h328v-256h-328zM903 1696v256h330v-256h-330z" />
<glyph unicode="&#xe2;" horiz-adv-x="1406" d="M63 385v190q0 249 160.5 397t417.5 148h655v-1120h-448v152l-72 -48q-88 -59 -171 -89.5t-189 -30.5q-175 0 -264 107t-89 294zM272 1280v33l287 336h369l289 -336v-33h-273l-201 193l-198 -193h-273zM512 449q0 -66 20 -98t76 -32q59 0 168 72l72 49v361h-96 q-122 0 -181 -54t-59 -172v-126z" />
<glyph unicode="&#xe7;" horiz-adv-x="1216" d="M63 449v190q0 125 47.5 221.5t132.5 156t195.5 90t241.5 30.5q280 0 471 -88v-377h-350v112q-52 17 -121 17q-78 0 -123 -43t-45 -119v-127q0 -106 49 -149.5t160 -43.5q191 0 383 50h16v-314q-85 -33 -214 -52t-234 -19q-609 0 -609 465zM365 -223h190q56 0 84.5 11 t28.5 44q0 62 -105 96v25h209q54 -25 90.5 -73t36.5 -95q0 -86 -62.5 -128t-160.5 -42h-311v162z" />
<glyph unicode="&#xee;" horiz-adv-x="704" d="M-143 1280v33l286 336h369l289 -336v-33h-273l-200 193l-201 -193h-270zM0 801v319h592v-1120h-449v801h-143z" />
<glyph unicode="&#xf6;" horiz-adv-x="1343" d="M47 559q0 301 156 439.5t469 138.5q325 0 474.5 -133t149.5 -445q0 -300 -155.5 -437.5t-468.5 -137.5q-162 0 -277 30.5t-194 98t-116.5 177.5t-37.5 269zM223 1280v256h330v-256h-330zM496 559q0 -126 34.5 -183t141.5 -57t141.5 57t34.5 183q0 63 -6.5 103.5t-24.5 74 t-53.5 49t-91.5 15.5t-91.5 -15.5t-53.5 -49t-24.5 -74t-6.5 -103.5zM793 1280v256h327v-256h-327z" />
<glyph unicode="&#xfb;" horiz-adv-x="1423" d="M113 336v784h446v-696q0 -52 17.5 -78.5t64.5 -26.5q61 0 190 105l33 25v671h449v-1120h-449v152l-49 -31q-74 -50 -115 -73.5t-108 -43.5t-143 -20q-161 0 -248.5 94t-87.5 258zM240 1280v33l288 336h367l289 -336v-33h-273l-198 193l-201 -193h-272z" />
<glyph unicode="&#xfc;" horiz-adv-x="1423" d="M113 336v784h446v-696q0 -52 17.5 -78.5t64.5 -26.5q61 0 190 105l33 25v671h449v-1120h-449v152l-49 -31q-74 -50 -115 -73.5t-108 -43.5t-143 -20q-161 0 -248.5 94t-87.5 258zM264 1280v256h328v-256h-328zM831 1280v256h328v-256h-328z" />
<glyph unicode="&#x11e;" horiz-adv-x="1519" d="M63 688v160q0 145 44 263t120 199.5t182.5 136.5t228 80t259.5 25q132 0 279 -26.5t200 -52.5v-336h-16q-72 29 -203 54.5t-260 25.5q-70 0 -135 -20t-122.5 -61.5t-92.5 -116t-35 -171.5v-160q0 -175 93.5 -272t242.5 -97h63q43 0 113 17v217h-193v344h578v-825 q-79 -30 -223.5 -59t-274.5 -29h-80q-368 0 -568 188t-200 516zM457 2111h153q0 -82 61.5 -129t159.5 -47q99 0 162.5 47.5t63.5 128.5h151q0 -79 -24.5 -152.5t-70 -132.5t-119 -94.5t-163.5 -35.5t-163 35.5t-118 94.5t-69 132.5t-24 152.5z" />
<glyph unicode="&#x11f;" horiz-adv-x="1423" d="M63 471v129q0 168 77 286.5t209 176t306 57.5h658v-960q0 -255 -158 -400t-420 -145h-512v322h289q54 0 90 1.5t76.5 7t66 15.5t50.5 27.5t38.5 42.5t22 61.5t8.5 83.5v8l-49 -24q-67 -34 -108 -51t-105.5 -31.5t-136.5 -14.5q-191 0 -296.5 107.5t-105.5 300.5z M336 1696h153q0 -83 62.5 -129.5t161.5 -46.5q98 0 160.5 46.5t62.5 129.5h151q0 -79 -24 -152.5t-69 -133t-118 -95t-163 -35.5t-163.5 35.5t-119 95t-70 133t-24.5 152.5zM512 528q0 -129 113 -129q19 0 38 2t30.5 4t30.5 7.5t25 7.5t27 10.5t25 9.5l63 25v336h-112 q-240 0 -240 -217v-56z" />
<glyph unicode="&#x130;" horiz-adv-x="671" d="M113 0v1536h446v-1536h-446zM139 1679v273h393v-273h-393z" />
<glyph unicode="&#x131;" horiz-adv-x="704" d="M0 801v319h592v-1120h-449v801h-143z" />
<glyph unicode="&#x15e;" horiz-adv-x="1327" d="M96 47v338h17q78 -25 205 -45.5t210 -20.5h47q97 0 153 30t56 108q0 30 -11.5 52t-33 36t-46.5 24t-57 20q-7 2 -11 3l-209 63q-144 45 -232 158t-88 299q0 93 34.5 168t92.5 125t139 83.5t170 48.5t189 15h31q90 0 215 -16.5t192 -40.5v-328h-14q-59 18 -181 34t-196 16 h-41q-182 0 -182 -105q0 -96 127 -129l209 -55q173 -46 262.5 -160t89.5 -311q0 -122 -50 -215t-137.5 -148t-197.5 -82.5t-240 -27.5h-80q-83 0 -214 19.5t-218 43.5zM244 -223h192q55 0 84 11.5t29 43.5q0 37 -29.5 58.5t-75.5 37.5v25h207q55 -25 92 -73t37 -95 q0 -86 -63.5 -128t-161.5 -42h-311v162z" />
<glyph unicode="&#x15f;" horiz-adv-x="1200" d="M63 16v328h17q212 -41 399 -41q193 0 193 49q0 9 -7.5 17t-24.5 14.5t-27.5 9.5t-33.5 8.5t-26 6.5l-176 41q-155 34 -234.5 111t-79.5 216q0 83 37 148t96.5 104.5t142.5 64.5t165.5 34.5t175.5 9.5q196 0 391 -41v-312h-14q-219 31 -369 31q-160 0 -160 -47 q0 -7 4.5 -13t13.5 -11t17.5 -8.5t23 -7t23.5 -6t24 -5.5t21 -4l146 -33q57 -13 101.5 -28.5t90.5 -42t76 -60.5t49 -84.5t19 -112.5q0 -75 -26.5 -135t-75.5 -99t-109 -66.5t-138 -41.5t-151 -20t-158 -6q-230 0 -416 32zM188 -223h193q54 0 82.5 11.5t28.5 43.5 q0 62 -105 96v25h209q54 -25 91.5 -73t37.5 -95q0 -86 -63.5 -128t-161.5 -42h-312v162z" />
<glyph unicode="&#x2c6;" horiz-adv-x="944" d="M0 1280v33l289 336h366l289 -336v-33h-272l-201 193l-199 -193h-272z" />
<glyph unicode="&#x2da;" horiz-adv-x="624" d="M0 1503q0 116 85 171t226 55q142 0 228 -55.5t86 -170.5q0 -51 -16 -90.5t-43.5 -64t-68 -40.5t-85.5 -22t-101 -6q-146 0 -228.5 50t-82.5 173zM184 1503q0 -52 32.5 -89.5t94.5 -37.5t95.5 37.5t33.5 89.5q0 54 -33.5 91.5t-95.5 37.5t-94.5 -37.5t-32.5 -91.5z" />
<glyph unicode="&#x2dc;" horiz-adv-x="704" d="M0 1280v248q32 45 85.5 83t115.5 38q37 0 80 -20t75 -44.5t68.5 -44.5t62.5 -20q63 0 108.5 34t92.5 95h17v-236q-32 -46 -93.5 -89.5t-124.5 -43.5q-46 0 -100.5 32t-103.5 64.5t-82 32.5t-60 -10t-51.5 -33.5t-37 -38t-36.5 -47.5h-16z" />
<glyph unicode="&#x2000;" horiz-adv-x="1055" />
<glyph unicode="&#x2001;" horiz-adv-x="2111" />
<glyph unicode="&#x2002;" horiz-adv-x="1055" />
<glyph unicode="&#x2003;" horiz-adv-x="2111" />
<glyph unicode="&#x2004;" horiz-adv-x="703" />
<glyph unicode="&#x2005;" horiz-adv-x="527" />
<glyph unicode="&#x2006;" horiz-adv-x="351" />
<glyph unicode="&#x2007;" horiz-adv-x="351" />
<glyph unicode="&#x2008;" horiz-adv-x="263" />
<glyph unicode="&#x2009;" horiz-adv-x="422" />
<glyph unicode="&#x200a;" horiz-adv-x="117" />
<glyph unicode="&#x2010;" horiz-adv-x="831" d="M63 575v353h705v-353h-705z" />
<glyph unicode="&#x2011;" horiz-adv-x="831" d="M63 575v353h705v-353h-705z" />
<glyph unicode="&#x2012;" horiz-adv-x="831" d="M63 575v353h705v-353h-705z" />
<glyph unicode="&#x2013;" horiz-adv-x="1024" d="M63 575v353h898v-353h-898z" />
<glyph unicode="&#x2014;" horiz-adv-x="2048" d="M63 575v353h1922v-353h-1922z" />
<glyph unicode="&#x2018;" horiz-adv-x="671" d="M80 897v160l297 479h248l-129 -639h-416z" />
<glyph unicode="&#x2019;" horiz-adv-x="671" d="M47 897l129 639h416v-160l-295 -479h-250z" />
<glyph unicode="&#x201a;" horiz-adv-x="671" d="M33 -256l127 641h415v-162l-294 -479h-248z" />
<glyph unicode="&#x201c;" horiz-adv-x="1232" d="M80 961v159l297 479h248l-129 -638h-416zM641 961v159l295 479h248l-127 -638h-416z" />
<glyph unicode="&#x201d;" horiz-adv-x="1232" d="M47 895l129 641h416v-160l-295 -481h-250zM608 895l127 641h416v-160l-295 -481h-248z" />
<glyph unicode="&#x201e;" horiz-adv-x="1232" d="M33 -256l127 641h415v-162l-294 -479h-248zM592 -256l129 641h416v-162l-297 -479h-248z" />
<glyph unicode="&#x2026;" horiz-adv-x="1918" d="M127 0v383h418v-383h-418zM752 0v383h415v-383h-415zM1376 0v383h416v-383h-416z" />
<glyph unicode="&#x202f;" horiz-adv-x="422" />
<glyph unicode="&#x2039;" horiz-adv-x="624" d="M63 545v286l408 289h41v-289l-209 -143l209 -143v-289h-41z" />
<glyph unicode="&#x203a;" horiz-adv-x="624" d="M113 256v289l206 143l-206 143v289h39l407 -289v-286l-407 -289h-39z" />
<glyph unicode="&#x205f;" horiz-adv-x="527" />
<glyph unicode="&#x20ac;" d="M33 512v201h160v110h-160v201h160v8q0 107 35 195t95 147.5t142 100t173.5 59t192.5 18.5h50q80 0 170 -19.5t133 -43.5v-330h-17q-55 25 -134 41.5t-152 16.5h-41q-39 0 -72 -9t-63 -30t-47 -60t-17 -94h416v-201h-416v-110h416v-201h-416q0 -57 18 -97t48 -60t60 -28 t64 -8h41q79 0 163.5 21t131.5 45h17v-330q-48 -24 -138 -47.5t-174 -23.5h-63q-101 0 -189.5 17.5t-167.5 57.5t-135 100.5t-89.5 150.5t-34.5 202h-160z" />
<glyph unicode="&#x2122;" horiz-adv-x="1888" d="M63 1327v209h672v-209h-198v-622h-273v622h-201zM831 705v831h289l176 -311l177 311h286v-831h-270v415l-146 -256h-96l-143 240v-399h-273z" />
<glyph unicode="&#x25fc;" horiz-adv-x="1116" d="M0 0v1116h1116v-1116h-1116z" />
</font>
</defs>
</svg>
