<?xml version="1.0" standalone="no"?>
<!DOCTYPE svg PUBLIC "-//W3C//DTD SVG 1.1//EN" "http://www.w3.org/Graphics/SVG/1.1/DTD/svg11.dtd" >
<svg xmlns="http://www.w3.org/2000/svg" xmlns:xlink="http://www.w3.org/1999/xlink" version="1.1">
<metadata></metadata>
<defs>
<font id="sansa_prolight" horiz-adv-x="1280" >
<font-face units-per-em="2048" ascent="1638" descent="-410" />
<missing-glyph horiz-adv-x="544" />
<glyph horiz-adv-x="0" />
<glyph horiz-adv-x="682" />
<glyph unicode=" "  horiz-adv-x="544" />
<glyph unicode="&#x09;" horiz-adv-x="544" />
<glyph unicode="&#xa0;" horiz-adv-x="544" />
<glyph unicode="!" horiz-adv-x="559" d="M223 0v193h113v-193h-113zM223 1536h121l-25 -1087h-71z" />
<glyph unicode="&#x22;" horiz-adv-x="911" d="M193 1536h110l-14 -416h-80zM545 1536h110l-14 -416h-82z" />
<glyph unicode="#" d="M63 391v80h297v594h-297v80h297v391h80v-391h400v391h80v-391h297v-80h-297v-594h297v-80h-297v-391h-80v391h-400v-391h-80v391h-297zM440 471h400v594h-400v-594z" />
<glyph unicode="$" d="M184 47v105h17q64 -25 178.5 -48.5t187.5 -23.5h74q158 0 254 87.5t96 240.5q0 238 -223 305l-223 63q-83 23 -141.5 52.5t-104 73.5t-68 106t-22.5 145q0 184 115.5 284t308.5 113v226h102v-224q80 -3 171.5 -19t150.5 -38v-94h-17q-62 20 -159 37.5t-168 17.5h-33 q-170 0 -269.5 -74.5t-99.5 -228.5q0 -206 217 -264l224 -66q82 -23 142.5 -55.5t107.5 -81t70.5 -118t23.5 -160.5q0 -195 -123 -307t-326 -117v-240h-102v240q-85 3 -186 20t-175 43z" />
<glyph unicode="%" horiz-adv-x="1918" d="M156 1100q0 446 342 446q168 0 254 -113.5t86 -332.5q0 -445 -340 -445q-342 0 -342 445zM254 1100q0 -363 244 -363q119 0 179 86t60 277t-60 276.5t-179 85.5q-121 0 -182.5 -85.5t-61.5 -276.5zM545 0v25l768 1511h63v-25l-768 -1511h-63zM1081 436q0 447 342 447 q168 0 254 -114.5t86 -332.5q0 -444 -340 -444q-342 0 -342 444zM1180 436q0 -362 243 -362q120 0 180 85t60 277t-60 277.5t-180 85.5q-121 0 -182 -86t-61 -277z" />
<glyph unicode="&#x26;" horiz-adv-x="1343" d="M193 432q0 120 62 220.5t169 156.5q-83 41 -133.5 132.5t-50.5 195.5q0 117 64 213t168 149t224 53h17q90 0 178.5 -17t148.5 -46v-96h-16q-129 63 -311 63h-17q-91 0 -169.5 -35.5t-130.5 -110t-52 -173.5q0 -106 65 -189.5t158 -83.5h680v-96h-182v-705 q-194 -79 -401 -79q-218 0 -344.5 123.5t-126.5 324.5zM297 432q0 -164 101.5 -258t265.5 -94q178 0 297 49v639h-353q-136 0 -223.5 -97.5t-87.5 -238.5z" />
<glyph unicode="'" horiz-adv-x="495" d="M193 1536h110l-14 -416h-80z" />
<glyph unicode="(" horiz-adv-x="608" d="M96 608v64q0 284 97 511t272 353h47v-33q-93 -81 -157.5 -179.5t-98.5 -207.5t-48.5 -215t-14.5 -229v-64q0 -123 14.5 -229t48.5 -215t98.5 -207.5t157.5 -179.5v-33h-47q-175 126 -272 353t-97 511z" />
<glyph unicode=")" horiz-adv-x="608" d="M96 -223q93 81 157.5 179.5t99 207.5t49 215.5t14.5 228.5v64q0 122 -14.5 228.5t-49 215.5t-99 207.5t-157.5 179.5v33h47q175 -126 272 -353t97 -511v-64q0 -284 -97 -511t-272 -353h-47v33z" />
<glyph unicode="*" horiz-adv-x="1024" d="M121 942l295 170l-295 170l47 84l297 -170v340h94v-340l297 170l47 -84l-295 -170l295 -170l-47 -84l-297 170v-340h-94v340l-297 -170z" />
<glyph unicode="+" d="M193 713v80h407v407h80v-407h407v-80h-407v-410h-80v410h-407z" />
<glyph unicode="," horiz-adv-x="559" d="M104 -256l119 449h113v-97l-168 -352h-64z" />
<glyph unicode="-" horiz-adv-x="831" d="M127 713v80h578v-80h-578z" />
<glyph unicode="." horiz-adv-x="559" d="M223 0v193h113v-193h-113z" />
<glyph unicode="/" horiz-adv-x="944" d="M63 -223l746 1759h72v-33l-746 -1759h-72v33z" />
<glyph unicode="0" d="M135 768q0 392 125 588t381 196q251 0 377.5 -199t126.5 -585q0 -784 -504 -784q-506 0 -506 784zM240 768q0 -688 401 -688q199 0 299 162t100 526t-100 526t-299 162q-98 0 -171 -37.5t-125 -118.5t-78.5 -214t-26.5 -318z" />
<glyph unicode="1" d="M240 1233v94l481 209h55v-1536h-104v1415l-416 -182h-16z" />
<glyph unicode="2" d="M193 0v160q0 84 18.5 157t59 141t109.5 126t165 104l151 72q295 139 295 368q0 92 -30 156t-85 96.5t-117 46t-143 13.5h-360v96h360q238 0 359 -104.5t121 -303.5q0 -67 -22.5 -128t-58.5 -108t-89 -90.5t-105 -75t-116 -62.5l-152 -72q-264 -125 -264 -432v-64h815v-96 h-911z" />
<glyph unicode="3" d="M193 0v96h399q196 0 306 96t110 279q0 322 -375 322h-256v96h375q112 65 160.5 135t48.5 160q0 128 -84 192t-261 64h-385v96h385q216 0 332.5 -91t116.5 -261q0 -207 -217 -328q264 -91 264 -385q0 -211 -141.5 -341t-378.5 -130h-399z" />
<glyph unicode="4" d="M104 399v80q172 237 273.5 510.5t134.5 546.5h104q-88 -601 -393 -1040h633v512h105v-512h198v-97h-198v-399h-105v399h-752z" />
<glyph unicode="5" d="M201 0v96h358q208 0 313 105.5t105 302.5q0 179 -109 261.5t-301 82.5h-336v688h809v-96h-704v-496h231q258 0 385 -119t127 -321q0 -94 -29 -180.5t-88.5 -160.5t-163.5 -118.5t-239 -44.5h-358z" />
<glyph unicode="6" d="M193 471v498q0 88 22 169.5t70.5 154t118 126.5t172 85.5t225.5 31.5h223v-96h-240q-238 0 -362.5 -132.5t-124.5 -379.5v-115q188 131 367 131q218 0 333 -118.5t115 -346.5q0 -76 -16.5 -146.5t-53 -134.5t-90 -111t-133.5 -75t-178 -28q-225 0 -336.5 125t-111.5 362z M297 465q0 -385 344 -385q81 0 145.5 21.5t115.5 67t78.5 124.5t27.5 186q0 192 -88 280.5t-256 88.5q-181 0 -367 -129v-254z" />
<glyph unicode="7" d="M129 1440v96h1024v-70q-569 -669 -569 -1331v-135h-105v96q0 161 36 329t91.5 309.5t130 279t144.5 239t143 187.5h-895z" />
<glyph unicode="8" d="M168 408q0 119 54 200.5t155 143.5l108 69l-6 2q-45 19 -81 40t-71.5 52t-59 67.5t-38 86t-14.5 107.5q0 81 24.5 146.5t64 107.5t94 70t110.5 40t117 12h55q62 0 118 -12t106.5 -39.5t87 -69t58 -105t21.5 -142.5q0 -66 -12 -114.5t-41 -88t-60 -66.5t-86 -67l-81 -57 l32 -15q65 -28 113 -59.5t87.5 -75t60 -102t20.5 -131.5q0 -102 -35 -183.5t-95.5 -133.5t-139.5 -79.5t-170 -27.5h-64q-95 0 -172.5 24t-136.5 74t-91 132.5t-32 193.5zM272 408q0 -93 26 -158.5t74.5 -102t107.5 -52t136 -15.5h31q352 0 352 328q0 190 -206 280l-224 98 l-98 -65q-27 -18 -37.5 -25.5t-37 -28t-39 -35t-32 -41t-29 -51.5t-17 -59.5t-7.5 -72.5zM319 1176q0 -181 193 -265l195 -84l69 54q41 31 64.5 50t51.5 48t42.5 56.5t24.5 65.5t10 83q0 76 -22.5 130t-64.5 84.5t-95.5 44t-122.5 13.5h-23q-73 0 -128.5 -13.5t-100.5 -44.5 t-69 -87t-24 -135z" />
<glyph unicode="9" d="M184 1071q0 100 27 184.5t80.5 152t143 106t206.5 38.5q220 0 333 -122.5t113 -358.5v-504q0 -113 -31 -210.5t-96.5 -179.5t-180 -129.5t-267.5 -47.5h-240v96h232q479 0 479 471v150q-182 -109 -358 -109q-215 0 -328 121t-113 342zM289 1071q0 -104 26 -177.5 t74 -113.5t105.5 -57.5t130.5 -17.5q192 0 358 106v268q0 194 -90 285.5t-252 91.5q-80 0 -140.5 -18.5t-110 -60.5t-75.5 -119t-26 -187z" />
<glyph unicode=":" horiz-adv-x="559" d="M223 0v193h113v-193h-113zM223 928v192h113v-192h-113z" />
<glyph unicode=";" horiz-adv-x="559" d="M104 -256l119 449h113v-97l-168 -352h-64zM223 928v192h113v-192h-113z" />
<glyph unicode="&#x3c;" d="M193 713v80l878 454h16v-88l-784 -407l784 -408v-88h-16z" />
<glyph unicode="=" d="M193 487v80h894v-80h-894zM193 936v80h894v-80h-894z" />
<glyph unicode="&#x3e;" d="M193 256v88l784 408l-784 407v88h16l878 -454v-80l-878 -457h-16z" />
<glyph unicode="?" horiz-adv-x="888" d="M129 1448v88h248q212 0 309.5 -87.5t97.5 -264.5q0 -171 -176 -375l-217 -250v-174h-94v190l215 256q176 209 176 353q0 130 -66.5 197t-213.5 67h-279zM289 0v193h110v-193h-110z" />
<glyph unicode="@" horiz-adv-x="1904" d="M129 672q0 173 47 318.5t128 247.5t191 174t235 106t261 34q174 0 318.5 -49t248 -141.5t161 -232.5t57.5 -314q0 -217 -133 -356.5t-347 -139.5h-352q-148 0 -242 94.5t-94 258.5q0 173 109 279t260 106h270v-649h49q77 0 143 22.5t119 69.5t83 127.5t30 187.5 q0 303 -179 476t-501 173q-121 0 -232.5 -31t-207.5 -96t-167.5 -157.5t-112 -223t-40.5 -284.5q0 -239 94.5 -420t261.5 -277t382 -96q200 0 366 49h17v-88q-68 -23 -173 -36t-202 -13q-133 0 -254.5 31t-230.5 100t-189 169.5t-127 249.5t-47 331zM713 672 q0 -122 58.5 -193t164.5 -71h209v561h-184q-109 0 -178.5 -82.5t-69.5 -214.5z" />
<glyph unicode="A" d="M63 0v16q49 203 177 639q66 226 173 500.5t162 380.5h130q55 -106 162 -380.5t173 -500.5q14 -46 44 -147.5t46 -155.5t40.5 -147t46.5 -189v-16h-113q-70 291 -117 449h-696q-71 -257 -115 -449h-113zM319 545h642q-3 10 -15 48t-18 62q-107 365 -287 785 q-177 -404 -289 -785q-6 -19 -17 -55t-16 -55z" />
<glyph unicode="B" horiz-adv-x="1247" d="M193 0v1536h503q185 0 280 -98t95 -285q0 -129 -46.5 -215t-152.5 -145q120 -54 176 -142.5t56 -226.5q0 -201 -102 -312.5t-297 -111.5h-512zM297 96h424q150 0 214 82t64 246q0 128 -73 219.5t-199 91.5h-430v-639zM297 831h430q81 0 137.5 49.5t80.5 120t24 152.5 q0 141 -61 214t-195 73h-416v-609z" />
<glyph unicode="C" horiz-adv-x="1247" d="M113 672v192q0 322 170.5 505t484.5 183q105 0 209.5 -20.5t159.5 -50.5v-344h-97v278q-45 18 -126.5 29.5t-145.5 11.5q-278 0 -415.5 -152.5t-137.5 -439.5v-192q0 -592 520 -592h66q75 0 163 20.5t140 42.5h16v-88q-50 -23 -142.5 -47t-176.5 -24h-66 q-311 0 -466.5 180.5t-155.5 507.5z" />
<glyph unicode="D" horiz-adv-x="1392" d="M193 0v1536h432q324 0 481.5 -158t157.5 -481v-225q0 -314 -154.5 -493t-454.5 -179h-462zM297 96h375q487 0 487 576v225q0 272 -126.5 407.5t-391.5 135.5h-344v-1344z" />
<glyph unicode="E" horiz-adv-x="1136" d="M193 352v1184h815v-96h-711v-576h647v-96h-647v-424q0 -126 61 -187t187 -61h463v-96h-455q-182 0 -271 86.5t-89 265.5z" />
<glyph unicode="F" horiz-adv-x="1071" d="M193 0v1184q0 179 89 265.5t271 86.5h424v-96h-432q-126 0 -187 -61t-61 -187v-328h647v-96h-647v-768h-104z" />
<glyph unicode="G" horiz-adv-x="1351" d="M113 672v192q0 314 180.5 501t490.5 187q121 0 233 -22t175 -49v-88h-16q-195 63 -392 63q-269 0 -419 -157t-150 -435v-192q0 -273 143 -424.5t410 -151.5h63q68 0 139.5 14t116.5 33v570h-352v96h457v-729q-62 -28 -169.5 -54t-191.5 -26h-63q-316 0 -485.5 176 t-169.5 496z" />
<glyph unicode="H" horiz-adv-x="1406" d="M193 0v1536h104v-672h815v672h105v-1536h-105v768h-815v-768h-104z" />
<glyph unicode="I" horiz-adv-x="487" d="M193 0v1536h104v-1536h-104z" />
<glyph unicode="J" horiz-adv-x="872" d="M96 0v96h201q143 0 210.5 92t67.5 252v1000h-415v96h520v-1087q0 -205 -99.5 -327t-291.5 -122h-193z" />
<glyph unicode="K" horiz-adv-x="1150" d="M193 0v1536h104v-688h94l608 688h105v-16l-633 -711l649 -793v-16h-121l-614 752h-88v-752h-104z" />
<glyph unicode="L" horiz-adv-x="1007" d="M193 352v1184h104v-1192q0 -126 61 -187t187 -61h432v-96h-424q-182 0 -271 86.5t-89 265.5z" />
<glyph unicode="M" horiz-adv-x="1615" d="M193 0v1536h71l545 -784l543 784h71v-1536h-102v1321l-498 -713h-30l-496 713v-1321h-104z" />
<glyph unicode="N" horiz-adv-x="1368" d="M193 0v1536h79l840 -1313v1313h105v-1536h-80l-840 1313v-1313h-104z" />
<glyph unicode="O" horiz-adv-x="1406" d="M113 735v66q0 130 20.5 241t66 206t113.5 162t168 104.5t224 37.5q155 0 270.5 -57t184.5 -160.5t102.5 -236.5t33.5 -297v-66q0 -164 -33.5 -297t-102.5 -236.5t-184.5 -160.5t-270.5 -57q-124 0 -224 37.5t-168 104.5t-113.5 162t-66 206t-20.5 241zM215 735 q0 -114 15.5 -209.5t51 -179.5t91 -141.5t140 -91t192.5 -33.5q107 0 191 33.5t139 91t91 141.5t51 179.5t15 209.5v66q0 114 -15 209.5t-51 179.5t-91 141.5t-139 91t-191 33.5q-108 0 -192.5 -33.5t-140 -91t-91 -141.5t-51 -179.5t-15.5 -209.5v-66z" />
<glyph unicode="P" horiz-adv-x="1183" d="M193 0v1536h440q231 0 342.5 -118t111.5 -353q0 -234 -119.5 -370t-342.5 -136h-328v-559h-104zM297 655h344q342 0 342 410q0 182 -75.5 278.5t-243.5 96.5h-367v-785z" />
<glyph unicode="Q" horiz-adv-x="1406" d="M113 735v66q0 130 20.5 241t66 206t113.5 162t168 104.5t224 37.5q155 0 270.5 -57t184.5 -160.5t102.5 -236.5t33.5 -297v-66q0 -124 -18.5 -231t-60 -200t-103 -160t-152 -108.5t-202.5 -49.5v-115q0 -83 41.5 -121.5t126.5 -38.5q104 0 209 41h16v-96 q-108 -41 -225 -41q-273 0 -273 256v115q-142 9 -248 69.5t-169.5 162.5t-94 231t-30.5 286zM215 735q0 -114 15.5 -209.5t51 -179.5t91 -141.5t140 -91t192.5 -33.5q107 0 191 33.5t139 91t91 141.5t51 179.5t15 209.5v66q0 114 -15 209.5t-51 179.5t-91 141.5t-139 91 t-191 33.5q-108 0 -192.5 -33.5t-140 -91t-91 -141.5t-51 -179.5t-15.5 -209.5v-66z" />
<glyph unicode="R" horiz-adv-x="1247" d="M193 0v1536h479q220 0 317.5 -107t97.5 -333q0 -150 -78.5 -262.5t-215.5 -153.5q71 -66 151 -206.5t131 -259.5t76 -198v-16h-111q-30 117 -142.5 334t-209.5 305h-391v-639h-104zM297 735h350q154 0 245 101.5t91 259.5q0 176 -66.5 260t-228.5 84h-391v-705z" />
<glyph unicode="S" horiz-adv-x="1128" d="M104 47v105h17q64 -25 178.5 -48.5t187.5 -23.5h72q159 0 255.5 87.5t96.5 240.5q0 238 -223 305l-223 63q-83 23 -141.5 52.5t-104 73.5t-68 106t-22.5 145q0 131 64 222.5t170 134t245 42.5h25q78 0 178.5 -16.5t165.5 -40.5v-94h-16q-62 20 -159.5 37.5t-168.5 17.5 h-33q-170 0 -269.5 -74.5t-99.5 -228.5q0 -206 218 -264l223 -66q82 -23 142.5 -55.5t107.5 -81t70.5 -118t23.5 -160.5q0 -200 -128 -312t-335 -112h-66q-81 0 -192 17.5t-191 45.5z" />
<glyph unicode="T" horiz-adv-x="1159" d="M33 1440v96h1095v-96h-481v-1440h-102v1440h-512z" />
<glyph unicode="U" horiz-adv-x="1376" d="M176 512v1024h105v-1057q0 -197 104 -298t303 -101t303.5 101t104.5 298v1057h104v-1024q0 -266 -125 -397t-387 -131q-268 0 -390 128t-122 400z" />
<glyph unicode="V" horiz-adv-x="1216" d="M63 1520v16h105q80 -445 179.5 -777.5t260.5 -662.5q160 327 264 669t177 771h102v-16q-58 -380 -196.5 -822.5t-290.5 -697.5h-119q-156 258 -290.5 695.5t-191.5 824.5z" />
<glyph unicode="W" horiz-adv-x="1792" d="M63 1520v16h105q132 -911 344 -1440q255 622 336 1440h96q101 -885 328 -1440q225 561 352 1440h105v-16q-55 -401 -162 -818t-232 -702h-127q-87 184 -170.5 486.5t-140.5 617.5q-60 -321 -145 -621.5t-177 -482.5h-126q-127 306 -236 723.5t-150 796.5z" />
<glyph unicode="X" horiz-adv-x="1150" d="M41 0v16l481 764l-475 740v16h113l424 -659l415 659h113v-16l-467 -740l492 -764v-16h-113l-440 684l-432 -684h-111z" />
<glyph unicode="Y" horiz-adv-x="1150" d="M47 1520v16h105l432 -793l424 793h104v-16l-479 -887v-633h-105v633z" />
<glyph unicode="Z" horiz-adv-x="1175" d="M96 0v80q196 261 463.5 692.5t360.5 667.5h-799v96h919v-80q-67 -165 -183.5 -378t-241.5 -409t-219.5 -336t-164.5 -237h848v-96h-983z" />
<glyph unicode="[" horiz-adv-x="591" d="M193 -256v1792h303v-88h-207v-1616h207v-88h-303z" />
<glyph unicode="\" horiz-adv-x="944" d="M63 1503v33h72l746 -1759v-33h-72z" />
<glyph unicode="]" horiz-adv-x="591" d="M96 -168h207v1616h-207v88h303v-1792h-303v88z" />
<glyph unicode="^" d="M143 223v17l457 880h80l457 -880v-17h-88l-408 785l-410 -785h-88z" />
<glyph unicode="_" d="M63 0h1154v-80h-1154v80z" />
<glyph unicode="`" horiz-adv-x="327" d="M0 1569v30h127l201 -286v-33h-47z" />
<glyph unicode="a" horiz-adv-x="1128" d="M121 328v272q0 237 150.5 378.5t392.5 141.5h272v-1120h-96v248l-72 -72q-36 -36 -56 -55t-59.5 -49.5t-71.5 -46.5t-78.5 -28.5t-94.5 -12.5q-139 0 -213 96t-74 248zM215 328q0 -113 53 -184.5t156 -71.5q82 0 152 46.5t151 129.5l113 112v672h-185 q-203 0 -321.5 -113.5t-118.5 -310.5v-280z" />
<glyph unicode="b" horiz-adv-x="1128" d="M193 0v1536h96v-664l71 72q45 45 72.5 69.5t75.5 58t100.5 49.5t112.5 16q137 0 212 -97t75 -247v-273q0 -237 -150.5 -378.5t-392.5 -141.5h-272zM289 88h182q204 0 322 113t118 311v281q0 114 -52 185t-154 71q-81 0 -151.5 -46.5t-154.5 -130.5l-110 -112v-672z" />
<glyph unicode="c" horiz-adv-x="960" d="M121 399v306q0 198 117 315t315 117q81 0 166 -19t137 -53v-234h-96v177q-90 41 -207 41q-162 0 -250 -91t-88 -253v-306q0 -156 83 -241.5t239 -85.5q75 0 164 24.5t139 55.5h16v-80q-48 -36 -142 -62t-177 -26q-198 0 -307 108.5t-109 306.5z" />
<glyph unicode="d" horiz-adv-x="1128" d="M121 328v272q0 237 150.5 378.5t392.5 141.5h176v416h96v-1536h-96v248l-72 -72q-36 -36 -56 -55t-59.5 -49.5t-71.5 -46.5t-78.5 -28.5t-94.5 -12.5q-139 0 -213 96t-74 248zM215 328q0 -113 53 -184.5t156 -71.5q82 0 152 46.5t151 129.5l113 112v672h-185 q-203 0 -321.5 -113.5t-118.5 -310.5v-280z" />
<glyph unicode="e" horiz-adv-x="1024" d="M121 399v306q0 197 119.5 314.5t312.5 117.5q162 0 264.5 -81.5t102.5 -232.5q0 -144 -94 -219.5t-251 -75.5h-360v-129q0 -156 83 -241.5t239 -85.5q140 0 303 80h16v-80q-58 -38 -143.5 -63t-175.5 -25q-198 0 -307 108.5t-109 306.5zM215 616h369q119 0 179 48.5 t60 158.5q0 111 -75 168.5t-195 57.5q-162 0 -250 -91t-88 -253v-89z" />
<glyph unicode="f" horiz-adv-x="688" d="M63 1032v88h209v80q0 162 87 249t249 87h113v-88h-113q-125 0 -182 -60.5t-57 -187.5v-80h319v-88h-319v-1032h-97v1032h-209z" />
<glyph unicode="g" horiz-adv-x="1128" d="M121 449v151q0 163 73 282.5t194.5 178.5t275.5 59h272v-952q0 -267 -133.5 -410t-394.5 -143h-224v88h232q213 0 318.5 118t105.5 339v33l-39 -25q-178 -105 -330 -105q-170 0 -260 103.5t-90 282.5zM215 449q0 -142 65.5 -219.5t198.5 -77.5q75 0 163 31t159 73l39 25 v751h-185q-201 0 -320.5 -111.5t-119.5 -312.5v-159z" />
<glyph unicode="h" horiz-adv-x="1183" d="M193 0v1536h96v-664l80 80q33 33 57 54.5t72 57t101 54.5t106 19q286 0 286 -336v-801h-94v801q0 114 -49.5 181t-151.5 67q-35 0 -73.5 -15t-67 -32t-69.5 -52t-59.5 -53t-57.5 -57l-80 -80v-760h-96z" />
<glyph unicode="i" horiz-adv-x="528" d="M33 1032v88h303v-1120h-96v1032h-207zM240 1376v160h96v-160h-96z" />
<glyph unicode="j" horiz-adv-x="544" d="M-113 -297h50q172 0 245.5 101t73.5 292v936h-209v88h305v-991q0 -122 -21.5 -213.5t-69 -160.5t-129 -104.5t-195.5 -35.5h-50v88zM256 1376v160h96v-160h-96z" />
<glyph unicode="k" horiz-adv-x="968" d="M193 0v1536h96v-881h127l385 465h96v-16l-410 -488l433 -600v-16h-105l-407 567h-119v-567h-96z" />
<glyph unicode="l" horiz-adv-x="495" d="M0 1448v88h303v-1536h-94v1448h-209z" />
<glyph unicode="m" horiz-adv-x="1888" d="M193 0v1120h96v-248l80 80q33 33 57 54.5t72 57t101 54.5t106 19q256 0 282 -265h4l80 80q39 38 58.5 55t70.5 55t103 56.5t106 18.5q287 0 287 -336v-801h-97v801q0 114 -48 181t-150 67q-43 0 -87.5 -18t-92.5 -55.5t-76 -63.5t-74 -72l-80 -80v-760h-94v801 q0 114 -49.5 181t-151.5 67q-35 0 -73.5 -15t-67 -32t-69.5 -52t-59.5 -53t-57.5 -57l-80 -80v-760h-96z" />
<glyph unicode="n" horiz-adv-x="1183" d="M193 0v1120h96v-248l80 80q33 33 57 54.5t72 57t101 54.5t106 19q286 0 286 -336v-801h-96v801q0 114 -48.5 181t-150.5 67q-35 0 -73.5 -15t-67 -32t-69.5 -52t-59.5 -53t-57.5 -57l-80 -80v-760h-96z" />
<glyph unicode="o" horiz-adv-x="1136" d="M113 567q0 126 26.5 228.5t80.5 180t142 119.5t205 42q97 0 174 -28t129.5 -77.5t87.5 -121.5t50.5 -157t15.5 -186t-15 -186.5t-49.5 -160t-86.5 -126t-130 -81t-176 -29.5q-120 0 -209 44.5t-141.5 125t-78 183.5t-25.5 230zM209 567q0 -84 11 -155.5t37.5 -135 t66.5 -108t102 -70.5t141 -26t141.5 26t103.5 70.5t67.5 108t37.5 135t11 155.5q0 482 -361 482q-358 0 -358 -482z" />
<glyph unicode="p" horiz-adv-x="1128" d="M193 -385v1505h96v-248l71 72q45 45 72.5 69.5t75.5 58t100.5 49.5t112.5 16q137 0 212 -97t75 -247v-273q0 -237 -150.5 -378.5t-392.5 -141.5h-176v-385h-96zM289 88h182q204 0 322 113t118 311v281q0 114 -52 185t-154 71q-81 0 -151.5 -46.5t-154.5 -130.5l-110 -112 v-672z" />
<glyph unicode="q" horiz-adv-x="1128" d="M121 328v272q0 237 150.5 378.5t392.5 141.5h272v-1505h-96v633l-72 -72q-36 -36 -56 -55t-59.5 -49.5t-71.5 -46.5t-78.5 -28.5t-94.5 -12.5q-139 0 -213 96t-74 248zM215 328q0 -113 53 -184.5t156 -71.5q82 0 152 46.5t151 129.5l113 112v672h-185 q-203 0 -321.5 -113.5t-118.5 -310.5v-280z" />
<glyph unicode="r" horiz-adv-x="727" d="M193 0v1120h96v-231l88 102q104 129 248 129h71v-96h-71q-115 0 -240 -143l-96 -113v-768h-96z" />
<glyph unicode="s" horiz-adv-x="991" d="M143 25v96h17q131 -49 297 -49q141 0 226 60.5t85 186.5q0 84 -43 128.5t-150 72.5l-159 39q-54 14 -89 26.5t-73.5 34.5t-60 49.5t-36 71t-14.5 99.5q0 61 22.5 111t61.5 84t91.5 57.5t111.5 34t123 10.5q138 0 262 -33v-88h-14q-136 33 -248 33q-64 0 -117.5 -10.5 t-99 -33.5t-71 -65t-25.5 -100q0 -81 42 -121.5t134 -63.5l159 -39q49 -13 85 -26t77 -37t66.5 -53.5t43 -76t17.5 -104.5q0 -108 -54 -185t-144.5 -113.5t-208.5 -36.5q-185 0 -314 41z" />
<glyph unicode="t" horiz-adv-x="784" d="M63 1032v88h209v256h97v-256h319v-88h-319v-680q0 -139 59.5 -201.5t196.5 -62.5h96v-88h-113q-186 0 -261 92.5t-75 292.5v647h-209z" />
<glyph unicode="u" horiz-adv-x="1175" d="M184 319v801h97v-801q0 -114 48 -180.5t150 -66.5q43 0 87.5 18t92.5 55.5t76 63.5t74 72l80 79v760h94v-1120h-94v248l-80 -80q-31 -30 -43.5 -42t-54 -45t-72.5 -49.5t-77.5 -32t-90.5 -15.5q-287 0 -287 335z" />
<glyph unicode="v" horiz-adv-x="991" d="M113 801v319h96v-319q0 -130 29 -251t76.5 -211.5t91.5 -151.5t90 -107q36 36 70.5 79.5t75.5 113t71 145t50.5 177t20.5 206.5v319h97v-319q0 -114 -25 -225.5t-61 -194.5t-86 -162.5t-89.5 -127.5t-82.5 -91h-88q-54 54 -105 122.5t-107 170t-90 234.5t-34 274z" />
<glyph unicode="w" horiz-adv-x="1488" d="M113 801v319h96v-319q0 -221 78 -429t162 -292q27 36 54 78t63.5 114.5t63.5 146.5t46.5 172t19.5 193v336h97v-336q0 -95 19.5 -193t46.5 -172t63.5 -146.5t63.5 -114.5t54 -78q84 84 162 292t78 429v319h96v-319q0 -136 -28.5 -268t-74.5 -233.5t-92.5 -175.5 t-93.5 -124h-88q-65 65 -146 219t-110 285q-28 -130 -109.5 -284.5t-146.5 -219.5h-96q-46 50 -91 124t-89 175.5t-71 233t-27 268.5z" />
<glyph unicode="x" horiz-adv-x="960" d="M47 0v16l379 549l-363 539v16h105l315 -471l326 471h102v-16l-370 -539l370 -549v-16h-102l-326 481l-331 -481h-105z" />
<glyph unicode="y" horiz-adv-x="1175" d="M184 496v624h97v-624q0 -142 60.5 -211.5t195.5 -69.5q80 0 171.5 35.5t155.5 77.5l25 16v776h94v-944q0 -279 -117 -420t-379 -141h-206v88h206q222 0 312 110.5t90 346.5v96l-25 -16q-63 -42 -158.5 -76.5t-185.5 -34.5q-164 0 -250 98t-86 269z" />
<glyph unicode="z" horiz-adv-x="1024" d="M113 0v72q172 215 369 500.5t294 459.5h-633v88h754v-71q-74 -143 -298 -468t-359 -493h671v-88h-798z" />
<glyph unicode="{" horiz-adv-x="960" d="M63 600v80q167 12 244.5 72.5t77.5 175.5v256q0 186 76.5 269t273.5 83h66v-88h-129q-104 0 -148.5 -61.5t-44.5 -186.5v-256q0 -140 -67 -208.5t-189 -94.5q60 -14 102 -33t79.5 -53t56 -88.5t18.5 -130.5v-256q0 -125 44.5 -186.5t148.5 -61.5h129v-88h-66 q-197 0 -273.5 83t-76.5 269v256q0 225 -322 248z" />
<glyph unicode="|" horiz-adv-x="559" d="M240 -385v2050h79v-2050h-79z" />
<glyph unicode="}" horiz-adv-x="960" d="M160 -168h129q103 0 146.5 61.5t43.5 186.5v256q0 76 19 130.5t56.5 88.5t79.5 53t101 33q-58 13 -101 33t-80 54t-56 88.5t-19 127.5v256q0 125 -43.5 186.5t-146.5 61.5h-129v88h63q198 0 275 -82.5t77 -269.5v-256q0 -115 77.5 -175.5t244.5 -72.5v-80 q-322 -23 -322 -248v-256q0 -187 -77 -269.5t-275 -82.5h-63v88z" />
<glyph unicode="~" d="M193 575v72q32 61 95.5 103.5t143.5 42.5q60 0 142.5 -34.5t159 -69t122.5 -34.5q81 0 129 33.5t86 104.5h16v-72q-32 -61 -95.5 -103.5t-143.5 -42.5q-60 0 -142.5 34.5t-159 69t-122.5 34.5q-69 0 -120.5 -34.5t-94.5 -103.5h-16z" />
<glyph unicode="&#xa2;" d="M113 672v192q0 311 159.5 493t454.5 195v224h104v-226q180 -9 297 -55v-94h-16q-172 55 -344 55q-278 0 -415.5 -152.5t-137.5 -439.5v-192q0 -592 520 -592h66q75 0 163 20.5t140 42.5h16v-88q-49 -23 -138.5 -46.5t-172.5 -24.5v-240h-104v240q-296 10 -444 190 t-148 498z" />
<glyph unicode="&#xa3;" d="M129 0v96h127q160 109 160 375v297h-223v96h223v193q0 229 119 354t346 125h239v-96h-239q-103 0 -174.5 -25.5t-112 -77t-57.5 -119t-17 -161.5v-193h504v-96h-504v-297q0 -71 -12.5 -136.5t-50 -133t-97.5 -105.5h760v-96h-991z" />
<glyph unicode="&#xa5;" d="M113 1520v16h102l432 -793l424 793h105v-16l-480 -887v-121h457v-96h-457v-416h-104v416h-463v96h463v121z" />
<glyph unicode="&#xa8;" horiz-adv-x="608" d="M0 1280v193h113v-193h-113zM496 1280v193h112v-193h-112z" />
<glyph unicode="&#xa9;" horiz-adv-x="1728" d="M96 784q0 217 100 389t275 267.5t393 95.5t393 -95.5t275 -267.5t100 -389t-100 -389t-275 -267t-393 -95t-393 95t-275 267t-100 389zM201 784q0 -140 48 -262.5t133.5 -210.5t210 -139t271.5 -51q196 0 348 87t234 237.5t82 338.5q0 187 -82 338t-234.5 238.5 t-347.5 87.5q-147 0 -271.5 -51t-210 -140t-133.5 -211t-48 -262zM496 784q0 179 120 297.5t295 118.5q118 0 201 -33v-88q-83 33 -201 33q-141 0 -226 -91t-85 -237q0 -152 81.5 -239.5t229.5 -87.5q113 0 201 30v-88q-101 -30 -201 -30q-187 0 -301 112t-114 303z" />
<glyph unicode="&#xab;" horiz-adv-x="1200" d="M127 639v96l432 330h16v-88l-352 -289l352 -289v-88h-16zM639 639v96l432 330h16v-88l-352 -289l352 -289v-88h-16z" />
<glyph unicode="&#xad;" horiz-adv-x="831" d="M127 713v80h578v-80h-578z" />
<glyph unicode="&#xae;" horiz-adv-x="1728" d="M96 784q0 217 100 389t275 267.5t393 95.5t393 -95.5t275 -267.5t100 -389t-100 -389t-275 -267t-393 -95t-393 95t-275 267t-100 389zM201 784q0 -140 48 -262.5t133.5 -210.5t210 -139t271.5 -51q196 0 348 87t234 237.5t82 338.5q0 187 -82 338t-234.5 238.5 t-347.5 87.5q-147 0 -271.5 -51t-210 -140t-133.5 -211t-48 -262zM600 369v831h195q333 0 333 -256q0 -82 -36.5 -140.5t-122.5 -98.5l184 -320v-16h-113l-159 295h-176v-295h-105zM705 752h143q76 0 126 49.5t50 142.5q0 81 -50 124.5t-126 43.5h-143v-360z" />
<glyph unicode="&#xb4;" horiz-adv-x="327" d="M0 1280v33l201 286h127v-30l-281 -289h-47z" />
<glyph unicode="&#xb8;" horiz-adv-x="407" d="M0 -303h223q113 0 113 102q0 35 -32.5 71.5t-72.5 57.5v25h50q54 -25 90.5 -73t36.5 -95q0 -77 -53.5 -123.5t-139.5 -46.5h-215v82z" />
<glyph unicode="&#xbb;" horiz-adv-x="1200" d="M113 311v88l352 289l-352 289v88h14l432 -330v-96l-432 -328h-14zM625 311v88l352 289l-352 289v88h14l432 -330v-96l-432 -328h-14z" />
<glyph unicode="&#xc2;" d="M63 0v16q49 203 177 639q66 226 173 500.5t162 380.5h130q55 -106 162 -380.5t173 -500.5q14 -46 44 -147.5t46 -155.5t40.5 -147t46.5 -189v-16h-113q-70 291 -117 449h-696q-71 -257 -115 -449h-113zM319 545h642q-3 10 -15 48t-18 62q-107 365 -287 785 q-177 -404 -289 -785q-6 -19 -17 -55t-16 -55zM319 1696v33l256 286h130l256 -291v-28h-66l-256 264l-256 -264h-64z" />
<glyph unicode="&#xc7;" horiz-adv-x="1247" d="M113 672v192q0 322 170.5 505t484.5 183q105 0 209.5 -20.5t159.5 -50.5v-344h-97v278q-45 18 -126.5 29.5t-145.5 11.5q-278 0 -415.5 -152.5t-137.5 -439.5v-192q0 -592 520 -592h66q75 0 163 20.5t140 42.5h16v-88q-50 -23 -142.5 -47t-176.5 -24h-66 q-311 0 -466.5 180.5t-155.5 507.5zM436 -303h223q113 0 113 102q0 35 -32 72t-72 57v25h49q54 -25 90.5 -73t36.5 -95q0 -77 -53.5 -123.5t-139.5 -46.5h-215v82z" />
<glyph unicode="&#xce;" horiz-adv-x="487" d="M-76 1696v33l256 286h127l256 -291v-28h-63l-256 264l-256 -264h-64zM193 0v1536h104v-1536h-104z" />
<glyph unicode="&#xd6;" horiz-adv-x="1406" d="M113 735v66q0 130 20.5 241t66 206t113.5 162t168 104.5t224 37.5q155 0 270.5 -57t184.5 -160.5t102.5 -236.5t33.5 -297v-66q0 -164 -33.5 -297t-102.5 -236.5t-184.5 -160.5t-270.5 -57q-124 0 -224 37.5t-168 104.5t-113.5 162t-66 206t-20.5 241zM215 735 q0 -114 15.5 -209.5t51 -179.5t91 -141.5t140 -91t192.5 -33.5q107 0 191 33.5t139 91t91 141.5t51 179.5t15 209.5v66q0 114 -15 209.5t-51 179.5t-91 141.5t-139 91t-191 33.5q-108 0 -192.5 -33.5t-140 -91t-91 -141.5t-51 -179.5t-15.5 -209.5v-66zM399 1696v192h113 v-192h-113zM895 1696v192h113v-192h-113z" />
<glyph unicode="&#xdb;" horiz-adv-x="1376" d="M176 512v1024h105v-1057q0 -197 104 -298t303 -101t303.5 101t104.5 298v1057h104v-1024q0 -266 -125 -397t-387 -131q-268 0 -390 128t-122 400zM369 1696v33l256 286h127l256 -291v-28h-64l-256 264l-256 -264h-63z" />
<glyph unicode="&#xdc;" horiz-adv-x="1376" d="M176 512v1024h105v-1057q0 -197 104 -298t303 -101t303.5 101t104.5 298v1057h104v-1024q0 -266 -125 -397t-387 -131q-268 0 -390 128t-122 400zM383 1696v192h113v-192h-113zM881 1696v192h110v-192h-110z" />
<glyph unicode="&#xe2;" horiz-adv-x="1128" d="M121 328v272q0 237 150.5 378.5t392.5 141.5h272v-1120h-96v248l-72 -72q-36 -36 -56 -55t-59.5 -49.5t-71.5 -46.5t-78.5 -28.5t-94.5 -12.5q-139 0 -213 96t-74 248zM215 328q0 -113 53 -184.5t156 -71.5q82 0 152 46.5t151 129.5l113 112v672h-185 q-203 0 -321.5 -113.5t-118.5 -310.5v-280zM260 1280v33l256 286h127l256 -290v-29h-63l-256 264l-256 -264h-64z" />
<glyph unicode="&#xe7;" horiz-adv-x="960" d="M121 399v306q0 198 117 315t315 117q81 0 166 -19t137 -53v-234h-96v177q-90 41 -207 41q-162 0 -250 -91t-88 -253v-306q0 -156 83 -241.5t239 -85.5q75 0 164 24.5t139 55.5h16v-80q-48 -36 -142 -62t-177 -26q-198 0 -307 108.5t-109 306.5zM260 -303h223 q113 0 113 102q0 35 -32 72t-72 57v25h49q54 -25 90.5 -73t36.5 -95q0 -77 -53.5 -123.5t-139.5 -46.5h-215v82z" />
<glyph unicode="&#xee;" horiz-adv-x="528" d="M-80 1280v33l256 286h127l256 -290v-29h-63l-256 264l-256 -264h-64zM33 1032v88h303v-1120h-96v1032h-207z" />
<glyph unicode="&#xf6;" horiz-adv-x="1136" d="M113 567q0 126 26.5 228.5t80.5 180t142 119.5t205 42q97 0 174 -28t129.5 -77.5t87.5 -121.5t50.5 -157t15.5 -186t-15 -186.5t-49.5 -160t-86.5 -126t-130 -81t-176 -29.5q-120 0 -209 44.5t-141.5 125t-78 183.5t-25.5 230zM209 567q0 -84 11 -155.5t37.5 -135 t66.5 -108t102 -70.5t141 -26t141.5 26t103.5 70.5t67.5 108t37.5 135t11 155.5q0 482 -361 482q-358 0 -358 -482zM264 1280v193h113v-193h-113zM760 1280v193h112v-193h-112z" />
<glyph unicode="&#xfb;" horiz-adv-x="1175" d="M184 319v801h97v-801q0 -114 48 -180.5t150 -66.5q43 0 87.5 18t92.5 55.5t76 63.5t74 72l80 79v760h94v-1120h-94v248l-80 -80q-31 -30 -43.5 -42t-54 -45t-72.5 -49.5t-77.5 -32t-90.5 -15.5q-287 0 -287 335zM268 1280v33l256 286h127l256 -290v-29h-63l-256 264 l-256 -264h-64z" />
<glyph unicode="&#xfc;" horiz-adv-x="1175" d="M184 319v801h97v-801q0 -114 48 -180.5t150 -66.5q43 0 87.5 18t92.5 55.5t76 63.5t74 72l80 79v760h94v-1120h-94v248l-80 -80q-31 -30 -43.5 -42t-54 -45t-72.5 -49.5t-77.5 -32t-90.5 -15.5q-287 0 -287 335zM285 1280v193h110v-193h-110zM780 1280v193h113v-193h-113 z" />
<glyph unicode="&#x11e;" horiz-adv-x="1351" d="M113 672v192q0 314 180.5 501t490.5 187q121 0 233 -22t175 -49v-88h-16q-195 63 -392 63q-269 0 -419 -157t-150 -435v-192q0 -273 143 -424.5t410 -151.5h63q68 0 139.5 14t116.5 33v570h-352v96h457v-729q-62 -28 -169.5 -54t-191.5 -26h-63q-316 0 -485.5 176 t-169.5 496zM436 1985h64q0 -91 70.5 -150t177.5 -59q108 0 177.5 59t69.5 150h66q0 -122 -82 -205.5t-231 -83.5q-148 0 -230 84t-82 205z" />
<glyph unicode="&#x11f;" horiz-adv-x="1128" d="M121 449v151q0 163 73 282.5t194.5 178.5t275.5 59h272v-952q0 -267 -133.5 -410t-394.5 -143h-224v88h232q213 0 318.5 118t105.5 339v33l-39 -25q-178 -105 -330 -105q-170 0 -260 103.5t-90 282.5zM215 449q0 -142 65.5 -219.5t198.5 -77.5q75 0 163 31t159 73l39 25 v751h-185q-201 0 -320.5 -111.5t-119.5 -312.5v-159zM276 1569h64q0 -91 70.5 -150t177.5 -59t177.5 59t70.5 150h63q0 -123 -81 -206t-230 -83q-148 0 -230 83t-82 206z" />
<glyph unicode="&#x130;" horiz-adv-x="487" d="M188 1696v192h111v-192h-111zM193 0v1536h104v-1536h-104z" />
<glyph unicode="&#x131;" horiz-adv-x="528" d="M33 1032v88h303v-1120h-96v1032h-207z" />
<glyph unicode="&#x15e;" horiz-adv-x="1128" d="M104 47v105h17q64 -25 178.5 -48.5t187.5 -23.5h72q159 0 255.5 87.5t96.5 240.5q0 238 -223 305l-223 63q-83 23 -141.5 52.5t-104 73.5t-68 106t-22.5 145q0 131 64 222.5t170 134t245 42.5h25q78 0 178.5 -16.5t165.5 -40.5v-94h-16q-62 20 -159.5 37.5t-168.5 17.5 h-33q-170 0 -269.5 -74.5t-99.5 -228.5q0 -206 218 -264l223 -66q82 -23 142.5 -55.5t107.5 -81t70.5 -118t23.5 -160.5q0 -200 -128 -312t-335 -112h-66q-81 0 -192 17.5t-191 45.5zM240 -303h225q110 0 110 102q0 35 -32 72t-72 57v25h49q54 -25 90.5 -73t36.5 -95 q0 -77 -53 -123.5t-137 -46.5h-217v82z" />
<glyph unicode="&#x15f;" horiz-adv-x="991" d="M143 25v96h17q131 -49 297 -49q141 0 226 60.5t85 186.5q0 84 -43 128.5t-150 72.5l-159 39q-54 14 -89 26.5t-73.5 34.5t-60 49.5t-36 71t-14.5 99.5q0 61 22.5 111t61.5 84t91.5 57.5t111.5 34t123 10.5q138 0 262 -33v-88h-14q-136 33 -248 33q-64 0 -117.5 -10.5 t-99 -33.5t-71 -65t-25.5 -100q0 -81 42 -121.5t134 -63.5l159 -39q49 -13 85 -26t77 -37t66.5 -53.5t43 -76t17.5 -104.5q0 -108 -54 -185t-144.5 -113.5t-208.5 -36.5q-185 0 -314 41zM197 -303h223q112 0 112 102q0 34 -32.5 71t-71.5 58v25h47q55 -25 92 -73t37 -95 q0 -77 -53 -123.5t-139 -46.5h-215v82z" />
<glyph unicode="&#x2c6;" horiz-adv-x="638" d="M0 1280v33l256 286h127l256 -290v-29h-64l-256 264l-256 -264h-63z" />
<glyph unicode="&#x2da;" horiz-adv-x="464" d="M0 1489q0 88 61 147.5t170 59.5t171.5 -59.5t62.5 -147.5q0 -89 -62 -149t-172 -60q-109 0 -170 60t-61 149zM63 1489q0 -74 43.5 -118t124.5 -44q82 0 125 44t43 118q0 73 -43 116.5t-125 43.5q-81 0 -124.5 -43.5t-43.5 -116.5z" />
<glyph unicode="&#x2dc;" horiz-adv-x="704" d="M0 1280v80q96 160 201 160q37 0 83.5 -25t82.5 -55t74.5 -55t62.5 -25q27 0 52 12t48 37t38.5 45.5t37.5 53.5q5 8 8 12h17v-80q-96 -160 -201 -160q-44 0 -104.5 40t-115 80t-83.5 40q-28 0 -54.5 -13.5t-51.5 -41.5t-40 -48t-39 -57h-16z" />
<glyph unicode="&#x2000;" horiz-adv-x="1007" />
<glyph unicode="&#x2001;" horiz-adv-x="2015" />
<glyph unicode="&#x2002;" horiz-adv-x="1007" />
<glyph unicode="&#x2003;" horiz-adv-x="2015" />
<glyph unicode="&#x2004;" horiz-adv-x="671" />
<glyph unicode="&#x2005;" horiz-adv-x="503" />
<glyph unicode="&#x2006;" horiz-adv-x="335" />
<glyph unicode="&#x2007;" horiz-adv-x="335" />
<glyph unicode="&#x2008;" horiz-adv-x="251" />
<glyph unicode="&#x2009;" horiz-adv-x="403" />
<glyph unicode="&#x200a;" horiz-adv-x="111" />
<glyph unicode="&#x2010;" horiz-adv-x="831" d="M127 713v80h578v-80h-578z" />
<glyph unicode="&#x2011;" horiz-adv-x="831" d="M127 713v80h578v-80h-578z" />
<glyph unicode="&#x2012;" horiz-adv-x="831" d="M127 713v80h578v-80h-578z" />
<glyph unicode="&#x2013;" horiz-adv-x="1024" d="M63 713v80h898v-80h-898z" />
<glyph unicode="&#x2014;" horiz-adv-x="2048" d="M63 713v80h1922v-80h-1922z" />
<glyph unicode="&#x2018;" horiz-adv-x="448" d="M160 1087v97l168 352h63l-119 -449h-112z" />
<glyph unicode="&#x2019;" horiz-adv-x="448" d="M55 1087l121 449h113v-96l-168 -353h-66z" />
<glyph unicode="&#x201a;" horiz-adv-x="559" d="M104 -256l119 449h113v-97l-168 -352h-64z" />
<glyph unicode="&#x201c;" horiz-adv-x="768" d="M160 1087v97l168 352h63l-119 -449h-112zM479 1087v97l168 352h66l-121 -449h-113z" />
<glyph unicode="&#x201d;" horiz-adv-x="768" d="M55 1087l121 449h113v-96l-168 -353h-66zM377 1087l119 449h112v-96l-168 -353h-63z" />
<glyph unicode="&#x201e;" horiz-adv-x="768" d="M88 -256l121 449h110v-97l-167 -352h-64zM408 -256l120 449h111v-97l-168 -352h-63z" />
<glyph unicode="&#x2026;" horiz-adv-x="1703" d="M223 0v193h113v-193h-113zM793 0v193h110v-193h-110zM1368 0v193h113v-193h-113z" />
<glyph unicode="&#x202f;" horiz-adv-x="403" />
<glyph unicode="&#x2039;" horiz-adv-x="688" d="M127 639v96l432 330h16v-88l-352 -289l352 -289v-88h-16z" />
<glyph unicode="&#x203a;" horiz-adv-x="688" d="M113 311v88l352 289l-352 289v88h14l432 -330v-96l-432 -328h-14z" />
<glyph unicode="&#x205f;" horiz-adv-x="503" />
<glyph unicode="&#x20ac;" d="M63 553v94h240v248h-240v96h240v33q0 242 139 385t359 143h47q81 0 169.5 -19t133.5 -44v-88h-14q-56 24 -135 39.5t-154 15.5h-47q-180 0 -286.5 -105t-106.5 -327v-33h553v-96h-553v-248h553v-94h-553v-41q0 -223 98.5 -327.5t294.5 -104.5h63q134 0 273 63h14v-88 q-151 -71 -287 -71h-63q-111 0 -200 30t-157 92t-104.5 165t-36.5 241v41h-240z" />
<glyph unicode="&#x2122;" horiz-adv-x="1439" d="M63 1448v88h504v-88h-198v-721h-105v721h-201zM688 727v809h55l256 -383l248 383h49v-809h-104v553l-176 -272h-39l-184 272v-553h-105z" />
<glyph unicode="&#x25fc;" horiz-adv-x="1116" d="M0 0v1116h1116v-1116h-1116z" />
</font>
</defs>
</svg>
